18xGirls Fucked Virgin teen

Sweet Teen Porn - Young Porn Videos 4113Russian Girls Cumshot Compilation

Posted in Amateur, HD Porn, Sex Movies, Teen | 70861 Views |


Rate this girl !!!




Fucked Virgin teen 1080p 13-10-24\r\n\r\n \r\n\r\n18xGirls Fucked Virgin teen\r\n\r\n18xGirls Fucked Virgin teen\r\n\r\n18xGirls Fucked Virgin teen\r\n\r\n18xGirls Fucked Virgin teen\r\n\r\n18xGirls Fucked Virgin teen\r\n\r\n18xGirls Fucked Virgin teen\r\n\r\nFile: Fucked Virgin teen 1080p.wmv\r\nSize: 946014750 bytes (902.19 MiB), duration: 00:25:44, avg.bitrate: 4902 kb/s\r\nAudio: wmapro, 44100 Hz, 2 channels, s16, 128 kb/s\r\nVideo: vc1, yuv420p, 1920×1080, 4750 kb/s, 23.98 fps(r)\r\n1.76 s, 10.24 shots/s; output: Fucked Virgin teen 1080p.tbme



DOWNLOAD

Keep2share.cc - Uploaded.net - Openload.co - Rapidu.net


http://ul.to/lnex7d4f
http://k2s.cc/file/41b7e405f1f18/Fu.ck.ed_V.ir.gi.n_t.e.en_1080p.wmv
http://played.to/y8ss1t6pmth0
http://uploaded.net/file/cfddu2kr/Fu.ck.ed%20V.ir.gi.n%20t.e.en%201080p.wmv


Premium here:
uploaded.net
keep2share.cc
rapidu.net.cc

Teens related to 18xGirls Fucked Virgin teen


Girls do porn in HD 225372 ryushare uploaded keep2share

Girls do porn in HD 225372

Porn party teen girls 224803 ryushare uploaded keep2share

Porn party teen girls 224803

Hot Teen Sex HD videos 224298 ryushare uploaded keep2share

Hot Teen Sex HD videos 224298

full hd hardcor shortsex clips ryushare uploaded keep2share

full hd hardcor shortsex clips

Beata Fucking in swimming pool ryushare uploaded keep2share

Beata Fucking in swimming pool

breezer hd porn video 226339 ryushare uploaded keep2share

breezer hd porn video 226339

Porn HD Sex HD Teen Sex 225023 ryushare uploaded keep2share

Porn HD Sex HD Teen Sex 225023

Sweet Teen Porn – Young Porn Videos 3794 ryushare uploaded keep2share

Sweet Teen Porn – Young Porn Videos 3794

Young teens tube hot girls free porn video 224027 ryushare uploaded keep2share

Young teens tube hot girls free porn video 224027

Hardcore sex videos in the high definition quality 5010 ryushare uploaded keep2share

Hardcore sex videos in the high definition quality 5010

Small girls and boys porn 3443 ryushare uploaded keep2share

Small girls and boys porn 3443

HD Teen Sex Tube 224854 ryushare uploaded keep2share

HD Teen Sex Tube 224854

Teen Sex Porn Videos Free Nude Teens 4307 ryushare uploaded keep2share

Teen Sex Porn Videos Free Nude Teens 4307

www hdvideo9 in porn ryushare uploaded keep2share

www hdvideo9 in porn

The best Teen sex 1220 ryushare uploaded keep2share

The best Teen sex 1220

HD porn teen downloads 2715 ryushare uploaded keep2share

HD porn teen downloads 2715

Fucked by two cocks in all holes ryushare uploaded keep2share

Fucked by two cocks in all holes

Nude Teens fucking hard 223937 ryushare uploaded keep2share

Nude Teens fucking hard 223937

yes-xxx-teen-sex-movies ryushare uploaded keep2share

yes-xxx-teen-sex-movies

www HD sex videoxxx com ryushare uploaded keep2share

www HD sex videoxxx com

porn pinkworld hd ryushare uploaded keep2share

porn pinkworld hd

www x hd video dowanloding ryushare uploaded keep2share

www x hd video dowanloding

Free High Quality Sex Movies 1788 ryushare uploaded keep2share

Free High Quality Sex Movies 1788

Wow porn tube movies 224392 ryushare uploaded keep2share

Wow porn tube movies 224392

High Definition Movies on HD 4675 ryushare uploaded keep2share

High Definition Movies on HD 4675

video9 in xxxsex 226754 ryushare uploaded keep2share

video9 in xxxsex 226754

Zarina AKA: Dalida ryushare uploaded keep2share

Zarina AKA: Dalida

A Busty Takes A Biggie – Connie ryushare uploaded keep2share

A Busty Takes A Biggie – Connie

Hardcore Sex Hub 225296 ryushare uploaded keep2share

Hardcore Sex Hub 225296

foto xxx porn girl ryushare uploaded keep2share

foto xxx porn girl

Hot Teen Sex 224413 ryushare uploaded keep2share

Hot Teen Sex 224413

Fresh Teen Videos 3763 ryushare uploaded keep2share

Fresh Teen Videos 3763

Free Porn Videos Xxx Movies Pussy Porn 2744 ryushare uploaded keep2share

Free Porn Videos Xxx Movies Pussy Porn 2744

HD Porn Video 1421 ryushare uploaded keep2share

HD Porn Video 1421

HD Teen Sex Tube 224188 ryushare uploaded keep2share

HD Teen Sex Tube 224188

Report broken links / Post a comment

You must be logged in to post a comment.



General\r\nComplete name : H:HD TEENS PORNDOWNLOADRYUSHAREUPLOADEDKEEP2SHAREFucked Virgin teen 1080p.wmv\r\nFormat : Windows Media\r\nFile size : 902 MiB\r\nDuration : 25mn 44s\r\nOverall bit rate mode : Variable\r\nOverall bit rate : 4 901 Kbps\r\nMaximum Overall bit rate : 10.0 Mbps\r\nEncoded date : UTC 2013-09-21 03:46:55.334\r\nComment : Download from HDteenmania.com\r\nEncoded_With : Sorenson Squeeze\r\nMediaFoundationVersion : 2.112\r\n\r\nVideo\r\nID : 31\r\nFormat : VC-1\r\nFormat profile : Advanced@L3\r\nCodec ID : WVC1\r\nCodec ID/Hint : Microsoft\r\nDescription of the codec : Windows Media Video 9 Advanced Profile\r\nDuration : 25mn 44s\r\nBit rate mode : Variable\r\nBit rate : 4 750 Kbps\r\nWidth : 1 920 pixels\r\nHeight : 1 080 pixels\r\nDisplay aspect ratio : 16:9\r\nFrame rate : 23.976 fps\r\nChroma subsampling : 4:2:0\r\nBit depth : 8 bits\r\nScan type : Progressive\r\nCompression mode : Lossy\r\nBits/(Pixel*Frame) : 0.096\r\nStream size : 874 MiB (97%)\r\n\r\nAudio\r\nID : 1\r\nFormat : WMA\r\nFormat profile : Pro\r\nCodec ID : 162\r\nCodec ID/Info : Windows Media Audio\r\nDescription of the codec : Windows Media Audio 10 Professional - 128 kbps, 44 kHz, 2 channel 24 bit (A/V) 1-pass CBR\r\nDuration : 25mn 44s\r\nBit rate mode : Constant\r\nBit rate : 128 Kbps\r\nChannel(s) : 2 channels\r\nSampling rate : 44.1 KHz\r\nBit depth : 24 bits\r\nStream size : 23.6 MiB (3%)