21Naturals.com Doris Ivy – Unchained

21Naturals.com Alysa Gap21Naturals.com Michelle Moore – Blindfolded

Posted in HD Porn, Pornstar, Sex Movies, Teen | 7343 Views |


Rate this girl !!!


(12 raters, 43 scores, average: 3.58 out of 5, 71.67%)

cover

1920x1080p / MP4 / 923.97 MB

[21Naturals.com] Doris Ivy – Unchained

SCREENSHOTS:

screens



DOWNLOAD

Keep2share.cc - Uploaded.net - Openload.co - Rapidu.net



Premium here:
uploaded.net
keep2share.cc
rapidu.net.cc


Teens related to 21Naturals.com Doris Ivy – Unchained


sex hd teen xxxxx 18 226086 ryushare uploaded keep2share

sex hd teen xxxxx 18 226086

Young XXX Tube Videos 3564 ryushare uploaded keep2share

Young XXX Tube Videos 3564

Nubilefilms.com Elena Rae – Russian Beauty ryushare uploaded keep2share

Nubilefilms.com Elena Rae – Russian Beauty

Free Porn Videos Xxx Movies Pussy Porn 225348 ryushare uploaded keep2share

Free Porn Videos Xxx Movies Pussy Porn 225348

Teen Sex Movies Young Porn Tube Vids 4969 ryushare uploaded keep2share

Teen Sex Movies Young Porn Tube Vids 4969

hd images fucking sex 226738 ryushare uploaded keep2share

hd images fucking sex 226738

Hot Teen Sex HD videos 225252 ryushare uploaded keep2share

Hot Teen Sex HD videos 225252

Big tits Big Ass Sex with model ryushare uploaded keep2share

Big tits Big Ass Sex with model

Lilly – Hot pussy Fuck In An Armchair ryushare uploaded keep2share

Lilly – Hot pussy Fuck In An Armchair

HD Porn Video 1239 ryushare uploaded keep2share

HD Porn Video 1239

Teen Porn XXX Tube 3723 ryushare uploaded keep2share

Teen Porn XXX Tube 3723

Hd quality – Teen sex video 4257 ryushare uploaded keep2share

Hd quality – Teen sex video 4257

pon ster xxxxxx ryushare uploaded keep2share

pon ster xxxxxx

Hardcore Sex Hub 223823 ryushare uploaded keep2share

Hardcore Sex Hub 223823

Porn party teen girls 224803 ryushare uploaded keep2share

Porn party teen girls 224803

Www sex Full PcVideo ryushare uploaded keep2share

Www sex Full PcVideo

Hot Teen Sex HD videos 224236 ryushare uploaded keep2share

Hot Teen Sex HD videos 224236

HD Sex World Videos High Definition Free Porn 224629 ryushare uploaded keep2share

HD Sex World Videos High Definition Free Porn 224629

Wow girls downloads hd 224254 ryushare uploaded keep2share

Wow girls downloads hd 224254

Wow girls porn teens 3033 ryushare uploaded keep2share

Wow girls porn teens 3033

High Definition Movies on HD Teen Porn XXX Tube 1708 ryushare uploaded keep2share

High Definition Movies on HD Teen Porn XXX Tube 1708

HD sex movies downloads 2913 ryushare uploaded keep2share

HD sex movies downloads 2913

xxxxsexvideo 226647 ryushare uploaded keep2share

xxxxsexvideo 226647

High Definition Movies on HD Teen Porn XXX Tube 2700 ryushare uploaded keep2share

High Definition Movies on HD Teen Porn XXX Tube 2700

Daisy Summers (Don’t Tell Your Sister Seriously) ryushare uploaded keep2share

Daisy Summers (Don’t Tell Your Sister Seriously)

Alyona, Klara & Paloma – Strap-on Adventure ryushare uploaded keep2share

Alyona, Klara & Paloma – Strap-on Adventure

Uploaded net porn 3760 ryushare uploaded keep2share

Uploaded net porn 3760

Japanese Young teen Amateur ryushare uploaded keep2share

Japanese Young teen Amateur

xxxsex video hd1080p dawnlod 226611 ryushare uploaded keep2share

xxxsex video hd1080p dawnlod 226611

hi sex movies download in hq 226295 ryushare uploaded keep2share

hi sex movies download in hq 226295

full hd hardcor shortsex clips ryushare uploaded keep2share

full hd hardcor shortsex clips

1080p pornstar 226032 ryushare uploaded keep2share

1080p pornstar 226032

www fist timrs sex x videos com 226534 ryushare uploaded keep2share

www fist timrs sex x videos com 226534

HD Porn Video 3620 ryushare uploaded keep2share

HD Porn Video 3620

sex videos with mkv ryushare uploaded keep2share

sex videos with mkv

Report broken links / Post a comment

You must be logged in to post a comment.



[21Naturals.com] Doris Ivy – Unchained

General
Complete name : J:HD Teens Movies Young Downloads Online Clips Scenes [21Naturals.com] Doris Ivy – Unchained v400013-499.mp4
Format : MPEG-4
Format profile : Base Media / Version 2
Codec ID : mp42
File size : 924 MiB
Duration : 20mn 49s
Overall bit rate mode : Variable
Overall bit rate : 6 202 Kbps
Encoded date : UTC 2013-07-11 09:13:19
Tagged date : UTC 2013-07-11 09:13:19

Video
ID : 1
Format : AVC
Format/Info : Advanced Video Codec
Format profile : High@L4.0
Format settings, CABAC : Yes
Format settings, ReFrames : 3 frames
Codec ID : avc1
Codec ID/Info : Advanced Video Coding
Duration : 20mn 49s
Bit rate : 6 008 Kbps
Width : 1 920 pixels
Height : 1 080 pixels
Display aspect ratio : 16:9
Frame rate mode : Constant
Frame rate : 25.000 fps
Standard : PAL
Color space : YUV
Chroma subsampling : 4:2:0
Bit depth : 8 bits
Scan type : Progressive
Bits/(Pixel*Frame) : 0.116
Stream size : 895 MiB (97%)
Language : English
Encoded date : UTC 2013-07-11 09:13:19
Tagged date : UTC 2013-07-11 09:13:19
Color primaries : BT.709
Transfer characteristics : BT.709
Matrix coefficients : BT.709

Audio
ID : 2
Format : AAC
Format/Info : Advanced Audio Codec
Format profile : LC
Codec ID : 40
Duration : 20mn 49s
Bit rate mode : Variable
Bit rate : 192 Kbps
Maximum bit rate : 414 Kbps
Channel count : 2 channels
Channel positions : Front: L R
Sampling rate : 48.0 KHz
Compression mode : Lossy
Stream size : 28.2 MiB (3%)
Language : English
Encoded date : UTC 2013-07-11 09:13:19
Tagged date : UTC 2013-07-11 09:13:19