8 Teen XXX – Teen Sex 2973

Teen porn movies 2976Fresh Teen Videos 2970

Posted in Amateur, HD Porn, Sex Movies, Teen | 83586 Views |


Rate this girl !!!




\r\n2.jpeg\r\n\r\nLink(681 Mb||18:35||1280*720||WMV)



DOWNLOAD

Keep2share.cc - Uploaded.net - Openload.co - Rapidu.net


http://k2s.cc/file/6c6154715ef2e/NBKRStn.wmv
http://ryushare.com/mh0hbgxqce3t/NBKRStn.wmv
http://ul.to/hskrm6qw/NBKRStn.wmv


Premium here:
uploaded.net
keep2share.cc
rapidu.net.cc


Teens related to 8 Teen XXX – Teen Sex 2973


Kennedy Leigh – Out With A Bang ryushare uploaded keep2share

Kennedy Leigh – Out With A Bang

Sweet Teen Porn – Young Porn Videos 3834 ryushare uploaded keep2share

Sweet Teen Porn – Young Porn Videos 3834

Teena Dolly – Teena Lipoldino 140 Movies ryushare uploaded keep2share

Teena Dolly – Teena Lipoldino 140 Movies

Donwload sexx or prons 226772 ryushare uploaded keep2share

Donwload sexx or prons 226772

WebYoung.com Sammie Daniels, Samantha Rone ryushare uploaded keep2share

WebYoung.com Sammie Daniels, Samantha Rone

Teen Sex Movies Young Porn Tube Vids 5156 ryushare uploaded keep2share

Teen Sex Movies Young Porn Tube Vids 5156

Teenage Fuck Clips 1735 ryushare uploaded keep2share

Teenage Fuck Clips 1735

Teen porn movies 1676 ryushare uploaded keep2share

Teen porn movies 1676

Good Teen Tube Sexy Young Naked Girls Movies 2541 ryushare uploaded keep2share

Good Teen Tube Sexy Young Naked Girls Movies 2541

H D SEXI VIDEO com 226526 ryushare uploaded keep2share

H D SEXI VIDEO com 226526

nude sex porn mp4 tube ryushare uploaded keep2share

nude sex porn mp4 tube

Beautifull 18 years girl amateur 4791 ryushare uploaded keep2share

Beautifull 18 years girl amateur 4791

Wow Porn Movies download) 224280 ryushare uploaded keep2share

Wow Porn Movies download) 224280

Good Teen Tube Sexy Young Naked Girls Movies 225111 ryushare uploaded keep2share

Good Teen Tube Sexy Young Naked Girls Movies 225111

www ingland sexcom 226618 ryushare uploaded keep2share

www ingland sexcom 226618

virgin fuck girl clips 226391 ryushare uploaded keep2share

virgin fuck girl clips 226391

21Naturals.com Chirsten, Inner beauty ryushare uploaded keep2share

21Naturals.com Chirsten, Inner beauty

Teen porn movies 2560 ryushare uploaded keep2share

Teen porn movies 2560

Adult Hardcore XXX Sex Videos 225032 ryushare uploaded keep2share

Adult Hardcore XXX Sex Videos 225032

WowGirls.com Vanda, Violette – Ill Teach You ryushare uploaded keep2share

WowGirls.com Vanda, Violette – Ill Teach You

Young Virgin Pussy Teen Fuck Tube 223802 ryushare uploaded keep2share

Young Virgin Pussy Teen Fuck Tube 223802

Teen Sex Videos Tube Movies 224560 ryushare uploaded keep2share

Teen Sex Videos Tube Movies 224560

xxxsxevid collega com ryushare uploaded keep2share

xxxsxevid collega com

Tube Young Sex 5310 ryushare uploaded keep2share

Tube Young Sex 5310

Veronika – Awesome sex with hot teeny ryushare uploaded keep2share

Veronika – Awesome sex with hot teeny

Wow girls hd porn teens 224337 ryushare uploaded keep2share

Wow girls hd porn teens 224337

Teen Sex Videos Tube Movies 225843 ryushare uploaded keep2share

Teen Sex Videos Tube Movies 225843

Free Porn Videos Xxx Movies Pussy Porn 5225 ryushare uploaded keep2share

Free Porn Videos Xxx Movies Pussy Porn 5225

Hardcore Sex Hub 225296 ryushare uploaded keep2share

Hardcore Sex Hub 225296

Teen Sex Porn Videos Free Nude Teens 224697 ryushare uploaded keep2share

Teen Sex Porn Videos Free Nude Teens 224697

teen porno sites xxx ryushare uploaded keep2share

teen porno sites xxx

HD Teens Sex Tube Videos XxX 5397 ryushare uploaded keep2share

HD Teens Sex Tube Videos XxX 5397

HD Sex World Videos High Definition Free Porn 224514 ryushare uploaded keep2share

HD Sex World Videos High Definition Free Porn 224514

www xxx hot 18 hd videos com ryushare uploaded keep2share

www xxx hot 18 hd videos com

8 Teen XXX – Teen Sex 1309 ryushare uploaded keep2share

8 Teen XXX – Teen Sex 1309

Report broken links / Post a comment

You must be logged in to post a comment.



General\r\nComplete name : D:HD Porn Teens Sex movies tube online downloadNBKRStn.wmv\r\nFormat : Windows Media\r\nFile size : 681 MiB\r\nDuration : 18mn 35s\r\nOverall bit rate mode : Constant\r\nOverall bit rate : 5 125 Kbps\r\nMaximum Overall bit rate : 5 290 Kbps\r\nPerformer : Royal-Cash.com\r\nEncoded date : UTC 2013-12-24 15:01:44.700\r\nCopyright : Royal-Cash.com\r\n\r\nVideo\r\nID : 2\r\nFormat : VC-1\r\nFormat profile : MP@HL\r\nCodec ID : WMV3\r\nCodec ID/Info : Windows Media Video 9\r\nCodec ID/Hint : WMV3\r\nDescription of the codec : Windows Media Video 9 - Professional\r\nDuration : 18mn 35s\r\nBit rate mode : Constant\r\nBit rate : 5 120 Kbps\r\nWidth : 1 280 pixels\r\nHeight : 720 pixels\r\nDisplay aspect ratio : 16:9\r\nFrame rate : 25.000 fps\r\nColor space : YUV\r\nChroma subsampling : 4:2:0\r\nBit depth : 8 bits\r\nScan type : Progressive\r\nCompression mode : Lossy\r\nBits/(Pixel*Frame) : 0.222\r\nStream size : 681 MiB (100%)\r\nLanguage : Russian\r\nNumberOfFrames : 27872\r\n\r\nAudio\r\nID : 1\r\nFormat : WMA\r\nFormat version : Version 2\r\nCodec ID : 161\r\nCodec ID/Info : Windows Media Audio\r\nDescription of the codec : Windows Media Audio 9.2 - 128 kbps, 44 kHz, stereo 1-pass CBR\r\nDuration : 18mn 35s\r\nBit rate mode : Constant\r\nBit rate : 128 Kbps\r\nChannel(s) : 2 channels\r\nSampling rate : 44.1 KHz\r\nBit depth : 16 bits\r\nStream size : 17.0 MiB (2%)\r\nLanguage : Russian\r\nNumberOfFrames : 3002\r\n\r\n