8 Teen XXX – Teen Sex 3479

Porn HD Sex HD Teen Sex 3480Hot sex girls movies download 3478

Posted in HD Porn, Pornstar, Sex Movies, Teen | 113628 Views |


Rate this girl !!!




BeataPorn.13.07.13.Morning.Joy.XXX.1080p\r\n\r\nBeataPorn Morning Joy XXX\r\n\r\nBeataPorn Morning Joy XXX\r\n\r\nBeataPorn Morning Joy XXX\r\n\r\nBeataPorn Morning Joy XXX\r\n\r\nBeataPorn Morning Joy XXX\r\n\r\nBeataPorn Morning Joy XXX\r\n\r\nBeataPorn Morning Joy XXX\r\n\r\nFile: BeataPorn.13.07.13.Morning.Joy.XXX.1080p.mp4\r\nSize: 697566676 bytes (665.25 MiB), duration: 00:25:04, avg.bitrate: 3710 kb/s\r\nAudio: aac, 44100 Hz, 2 channels, s16, 103 kb/s (und)\r\nVideo: h264, yuv420p, 1920×1080, 3600 kb/s, 25.00 fps(r) (und)



DOWNLOAD

Keep2share.cc - Uploaded.net - Openload.co - Rapidu.net


http://fileom.com/i9tqz6so6a0b/B434t4.M0rn1ng.J0y.1080p.rar.html
http://k2s.cc/file/d1f83ac85ce7b/B434t4.M0rn1ng.J0y.1080p.rar
http://ryushare.com/5t4w3tyy1fvs/B434t4.M0rn1ng.J0y.1080p.rar
http://ul.to/u6y3jtx9/B434t4.M0rn1ng.J0y.1080p.rar


Premium here:
uploaded.net
keep2share.cc
rapidu.net.cc

Teens related to 8 Teen XXX – Teen Sex 3479


sexual sex xxx 226605 ryushare uploaded keep2share

sexual sex xxx 226605

Good Teen Tube Sexy Young Naked Girls Movies 225493 ryushare uploaded keep2share

Good Teen Tube Sexy Young Naked Girls Movies 225493

hd low space porn video ryushare uploaded keep2share

hd low space porn video

HD Porn Video 1552 ryushare uploaded keep2share

HD Porn Video 1552

Japanese Young teen Amateur ryushare uploaded keep2share

Japanese Young teen Amateur

Teen porn movies 4620 ryushare uploaded keep2share

Teen porn movies 4620

Wow Girls Porn Clips download 224666 ryushare uploaded keep2share

Wow Girls Porn Clips download 224666

Teen Tits Tube, Young Girls Porn Videos 225601 ryushare uploaded keep2share

Teen Tits Tube, Young Girls Porn Videos 225601

Sweet Teen Porn – Young Porn Videos 3539 ryushare uploaded keep2share

Sweet Teen Porn – Young Porn Videos 3539

[RylskyArt.com] Solana – Kasanya ryushare uploaded keep2share

[RylskyArt.com] Solana – Kasanya

HD Porn Teen Sex Videos 225071 ryushare uploaded keep2share

HD Porn Teen Sex Videos 225071

Porn teen hd downloads 224010 ryushare uploaded keep2share

Porn teen hd downloads 224010

Brandy Naughty – First Time Auditions ryushare uploaded keep2share

Brandy Naughty – First Time Auditions

8 Teen XXX – Teen Sex 224806 ryushare uploaded keep2share

8 Teen XXX – Teen Sex 224806

sex 18 xxxxxxxxx hd ryushare uploaded keep2share

sex 18 xxxxxxxxx hd

Teen Sex Movies 224712 ryushare uploaded keep2share

Teen Sex Movies 224712

Janette – Today Was Amazing ryushare uploaded keep2share

Janette – Today Was Amazing

Xxxsexvidoa comhd ryushare uploaded keep2share

Xxxsexvidoa comhd

sex hd romance 226550 ryushare uploaded keep2share

sex hd romance 226550

Teen Sex Movies 2658 ryushare uploaded keep2share

Teen Sex Movies 2658

8 Teen XXX – Teen Sex 4603 ryushare uploaded keep2share

8 Teen XXX – Teen Sex 4603

Free Young Porn Videos XXX Teen Porn 225794 ryushare uploaded keep2share

Free Young Porn Videos XXX Teen Porn 225794

NubilesPorn.com Jessie Volt – Juste Toi Et Moi ryushare uploaded keep2share

NubilesPorn.com Jessie Volt – Juste Toi Et Moi

Teen Sex Videos Tube Movies 224992 ryushare uploaded keep2share

Teen Sex Videos Tube Movies 224992

teenssexdownloa 226445 ryushare uploaded keep2share

teenssexdownloa 226445

Hd quality – Teen sex video 4204 ryushare uploaded keep2share

Hd quality – Teen sex video 4204

teenmania hd video download 226090 ryushare uploaded keep2share

teenmania hd video download 226090

Wow girls downloads hd 225203 ryushare uploaded keep2share

Wow girls downloads hd 225203

HD Porn Videos 4077 ryushare uploaded keep2share

HD Porn Videos 4077

8 Teen XXX – Teen Sex 224953 ryushare uploaded keep2share

8 Teen XXX – Teen Sex 224953

sex hd video hai quality downlard 226504 ryushare uploaded keep2share

sex hd video hai quality downlard 226504

XXX/H/XX/ ryushare uploaded keep2share

XXX/H/XX/

Molly – Deep and passionate anal ryushare uploaded keep2share

Molly – Deep and passionate anal

www hd sex world moves 226438 ryushare uploaded keep2share

www hd sex world moves 226438

Amateur Teen Sex 5465 ryushare uploaded keep2share

Amateur Teen Sex 5465

Report broken links / Post a comment

You must be logged in to post a comment.



General\r\nComplete name : H:HD TEENS PORNDOWNLOADRYUSHAREUPLOADEDKEEP2SHAREBeataPorn.13.07.13.Morning.Joy.XXX.1080p.mp4\r\nFormat : MPEG-4\r\nFormat profile : Base Media\r\nCodec ID : isom\r\nFile size : 665 MiB\r\nDuration : 25mn 4s\r\nOverall bit rate mode : Variable\r\nOverall bit rate : 3 709 Kbps\r\nWriting application : Lavf52.64.2\r\n\r\nVideo\r\nID : 1\r\nFormat : AVC\r\nFormat/Info : Advanced Video Codec\r\nFormat profile : High@L4.0\r\nFormat settings, CABAC : Yes\r\nFormat settings, ReFrames : 2 frames\r\nCodec ID : avc1\r\nCodec ID/Info : Advanced Video Coding\r\nDuration : 25mn 4s\r\nBit rate : 3 601 Kbps\r\nWidth : 1 920 pixels\r\nHeight : 1 080 pixels\r\nDisplay aspect ratio : 16:9\r\nFrame rate mode : Constant\r\nFrame rate : 25.000 fps\r\nColor space : YUV\r\nChroma subsampling : 4:2:0\r\nBit depth : 8 bits\r\nScan type : Progressive\r\nBits/(Pixel*Frame) : 0.069\r\nStream size : 646 MiB (97%)\r\nWriting library : x264 core 102 r1666 d058f37\r\nEncoding settings : cabac=1 / ref=2 / deblock=1:0:0 / analyse=0x3:0x113 / me=hex / subme=6 / psy=1 / psy_rd=1.00:0.00 / mixed_ref=0 / me_range=16 / chroma_me=1 / trellis=0 / 8x8dct=1 / cqm=0 / deadzone=21,11 / fast_pskip=1 / chroma_qp_offset=-2 / threads=24 / sliced_threads=0 / nr=0 / decimate=1 / interlaced=0 / constrained_intra=0 / bframes=3 / b_pyramid=0 / b_adapt=1 / b_bias=0 / direct=3 / weightb=1 / open_gop=0 / weightp=2 / keyint=250 / keyint_min=25 / scenecut=40 / intra_refresh=0 / rc_lookahead=40 / rc=crf / mbtree=1 / crf=20.0 / qcomp=0.60 / qpmin=10 / qpmax=51 / qpstep=4 / ip_ratio=1.41 / aq=1:1.00\r\n\r\nAudio\r\nID : 2\r\nFormat : AAC\r\nFormat/Info : Advanced Audio Codec\r\nFormat profile : LC\r\nCodec ID : 40\r\nDuration : 25mn 4s\r\nBit rate mode : Variable\r\nBit rate : 103 Kbps\r\nChannel(s) : 2 channels\r\nChannel positions : Front: L R\r\nSampling rate : 44.1 KHz\r\nCompression mode : Lossy\r\nDelay relative to video : 40ms\r\nStream size : 18.5 MiB (3%)