[AbbyWinters.com] Sasha R.

1By-Day.com Danika – Undercover BananaBrandy Naughty - First Time Auditions

Posted in Amateur, HD Porn, Sex Movies, Teen | 16213 Views |


Rate this girl !!!




[AbbyWinters.com] Sasha R.

\r\n \r\n\r\ncover\r\n\r\n1280x720p / MP4 / 1.2 GB\r\n

[AbbyWinters.com] Sasha R.

\r\nSCREENSHOTS:\r\n\r\nscreens



DOWNLOAD

Keep2share.cc - Uploaded.net - Openload.co - Rapidu.net


http://ul.to/phfe913n/S4sh4%20R..mp4

http://played.to/59xizeg7ogtp


Premium here:
uploaded.net
keep2share.cc
rapidu.net.cc


Teens related to [AbbyWinters.com] Sasha R.


HD Porn Teen Sex Videos 4992 ryushare uploaded keep2share

HD Porn Teen Sex Videos 4992

Two Teasing Tongues 9 ryushare uploaded keep2share

Two Teasing Tongues 9

yess xxx mkv 226512 ryushare uploaded keep2share

yess xxx mkv 226512

HD Teens Sex Tube Videos XxX 2706 ryushare uploaded keep2share

HD Teens Sex Tube Videos XxX 2706

Teen porn xxx 224082 ryushare uploaded keep2share

Teen porn xxx 224082

Teen porn movies 223816 ryushare uploaded keep2share

Teen porn movies 223816

Www pinkworld com hd xxx video 226174 ryushare uploaded keep2share

Www pinkworld com hd xxx video 226174

High Definition Movies on HD Teen Porn XXX Tube 1687 ryushare uploaded keep2share

High Definition Movies on HD Teen Porn XXX Tube 1687

HD Teens Sex Tube Videos XxX 224767 ryushare uploaded keep2share

HD Teens Sex Tube Videos XxX 224767

real virgin Teent pussy image Hd com ryushare uploaded keep2share

real virgin Teent pussy image Hd com

High Definition Movies on HD 1969 ryushare uploaded keep2share

High Definition Movies on HD 1969

1080P full hd hordcore sex movies ryushare uploaded keep2share

1080P full hd hordcore sex movies

College Teen Sex 224724 ryushare uploaded keep2share

College Teen Sex 224724

College Teen Sex 3576 ryushare uploaded keep2share

College Teen Sex 3576

Amateur Teen Sex 5266 ryushare uploaded keep2share

Amateur Teen Sex 5266

Hot Teen Sex HD videos 224860 ryushare uploaded keep2share

Hot Teen Sex HD videos 224860

Hardcore sex videos in the high definition quality 2311 ryushare uploaded keep2share

Hardcore sex videos in the high definition quality 2311

Hardcore sex videos in the high definition quality 5296 ryushare uploaded keep2share

Hardcore sex videos in the high definition quality 5296

Young 720p hd porn 3975 ryushare uploaded keep2share

Young 720p hd porn 3975

Hot amateur ryushare uploaded keep2share

Hot amateur

Wow Porn Movies download) 224734 ryushare uploaded keep2share

Wow Porn Movies download) 224734

teensex mp4 hd download 226542 ryushare uploaded keep2share

teensex mp4 hd download 226542

Nude Teens fucking hard 5075 ryushare uploaded keep2share

Nude Teens fucking hard 5075

HD Porn Video 225189 ryushare uploaded keep2share

HD Porn Video 225189

HD Teens Sex Tube Videos XxX 2388 ryushare uploaded keep2share

HD Teens Sex Tube Videos XxX 2388

Hot Teen Sex HD videos 224298 ryushare uploaded keep2share

Hot Teen Sex HD videos 224298

Hot Teen Sex HD videos 1930 ryushare uploaded keep2share

Hot Teen Sex HD videos 1930

High Definition Movies on HD Teen Porn XXX Tube 1919 ryushare uploaded keep2share

High Definition Movies on HD Teen Porn XXX Tube 1919

Wow girls porn teens 3486 ryushare uploaded keep2share

Wow girls porn teens 3486

Amateur Teen Sex 224595 ryushare uploaded keep2share

Amateur Teen Sex 224595

full hd hardcor shortsex clips ryushare uploaded keep2share

full hd hardcor shortsex clips

[RylskyArt.com] Liania – Mitsiia ryushare uploaded keep2share

[RylskyArt.com] Liania – Mitsiia

Girls do porn in HD 224304 ryushare uploaded keep2share

Girls do porn in HD 224304

Teen Sex Movies 224577 ryushare uploaded keep2share

Teen Sex Movies 224577

Free High Quality Sex Movies 3471 ryushare uploaded keep2share

Free High Quality Sex Movies 3471

Report broken links / Post a comment

You must be logged in to post a comment.



General\r\nComplete name : J:HD Teens Movies Young Downloads Online Clips Scenes[AbbyWinters.com] Sasha R.mp4\r\nFormat : MPEG-4\r\nFormat profile : Base Media / Version 2\r\nCodec ID : mp42\r\nFile size : 1.20 GiB\r\nDuration : 33mn 24s\r\nOverall bit rate mode : Variable\r\nOverall bit rate : 5 160 Kbps\r\nEncoded date : UTC 2012-11-15 00:05:38\r\nTagged date : UTC 2012-11-15 00:05:38\r\n\r\nVideo\r\nID : 1\r\nFormat : AVC\r\nFormat/Info : Advanced Video Codec\r\nFormat profile : Main@L3.1\r\nFormat settings, CABAC : Yes\r\nFormat settings, ReFrames : 4 frames\r\nFormat settings, GOP : M=4, N=33\r\nCodec ID : avc1\r\nCodec ID/Info : Advanced Video Coding\r\nDuration : 33mn 24s\r\nBit rate mode : Variable\r\nBit rate : 4 999 Kbps\r\nMaximum bit rate : 8 000 Kbps\r\nWidth : 1 280 pixels\r\nHeight : 720 pixels\r\nDisplay aspect ratio : 16:9\r\nFrame rate mode : Constant\r\nFrame rate : 25.000 fps\r\nStandard : PAL\r\nColor space : YUV\r\nChroma subsampling : 4:2:0\r\nBit depth : 8 bits\r\nScan type : Progressive\r\nBits/(Pixel*Frame) : 0.217\r\nStream size : 1.17 GiB (97%)\r\nLanguage : English\r\nEncoded date : UTC 2012-11-15 00:05:40\r\nTagged date : UTC 2012-11-15 00:05:40\r\n\r\nAudio\r\nID : 2\r\nFormat : AAC\r\nFormat/Info : Advanced Audio Codec\r\nFormat profile : LC\r\nCodec ID : 40\r\nDuration : 33mn 24s\r\nBit rate mode : Variable\r\nBit rate : 158 Kbps\r\nMaximum bit rate : 258 Kbps\r\nChannel count : 2 channels\r\nChannel positions : Front: L R\r\nSampling rate : 48.0 KHz\r\nCompression mode : Lossy\r\nStream size : 37.6 MiB (3%)\r\nLanguage : English\r\nEncoded date : UTC 2012-11-15 00:05:43\r\nTagged date : UTC 2012-11-15 00:05:43\r\n\r\n