Adult Hardcore XXX Sex Videos 1879

Hot Teen Sex HD videos 1883Hd young videos 1872

Posted in HD Porn, Pornstar, Sex Movies, Teen | 31787 Views |


Rate this girl !!!




\r\n\r\nhttp://img56.imagetwist.com/i/05289/f6b2ot5jcubq.jpeg\r\n\r\n Link(875 Mb||24:56||1280*720||MP4)



DOWNLOAD

Keep2share.cc - Uploaded.net - Openload.co - Rapidu.net


http://keep2share.cc/file/56ba1937c0df2
http://ryushare.com/11lg6f29fpek/DGHSKTty.rar
http://ul.to/1tsmjn2k


Premium here:
uploaded.net
keep2share.cc
rapidu.net.cc


Teens related to Adult Hardcore XXX Sex Videos 1879


HQ Sex Movies Download 1864 ryushare uploaded keep2share

HQ Sex Movies Download 1864

Alexis Brill A Dose Of Pantyhose ryushare uploaded keep2share

Alexis Brill A Dose Of Pantyhose

Hd young videos 1610 ryushare uploaded keep2share

Hd young videos 1610

Tantric Massage – All Sex HD1080p ryushare uploaded keep2share

Tantric Massage – All Sex HD1080p

Low mb full hd sex video download 226510 ryushare uploaded keep2share

Low mb full hd sex video download 226510

Teen 18 Porn XXX Clips Naked 3895 ryushare uploaded keep2share

Teen 18 Porn XXX Clips Naked 3895

8teen xxx pcHD com ryushare uploaded keep2share

8teen xxx pcHD com

Teen Porn XXX Tube 224141 ryushare uploaded keep2share

Teen Porn XXX Tube 224141

bigbobs hd sex videos dawonlode ryushare uploaded keep2share

bigbobs hd sex videos dawonlode

Model porno sex 4859 ryushare uploaded keep2share

Model porno sex 4859

porn videos direct download 226299 ryushare uploaded keep2share

porn videos direct download 226299

High Definition Movies on HD 4195 ryushare uploaded keep2share

High Definition Movies on HD 4195

Hot Teen Sex 225853 ryushare uploaded keep2share

Hot Teen Sex 225853

noveteens girls models clips 226158 ryushare uploaded keep2share

noveteens girls models clips 226158

Very hot brunette fucked ryushare uploaded keep2share

Very hot brunette fucked

Carmen Fox – Fucked by the best client ryushare uploaded keep2share

Carmen Fox – Fucked by the best client

Tube xxx 224727 ryushare uploaded keep2share

Tube xxx 224727

Teen porn xxx 225114 ryushare uploaded keep2share

Teen porn xxx 225114

gina devine seks 226666 ryushare uploaded keep2share

gina devine seks 226666

Jungal PornStars Sex 226234 ryushare uploaded keep2share

Jungal PornStars Sex 226234

Porno movies young teens lesbian 5426 ryushare uploaded keep2share

Porno movies young teens lesbian 5426

Chelsea – First & Forever ryushare uploaded keep2share

Chelsea – First & Forever

Beautiful small tits blonde ryushare uploaded keep2share

Beautiful small tits blonde

pornosexxx hd 226414 ryushare uploaded keep2share

pornosexxx hd 226414

Hot Teen Sex HD videos 2425 ryushare uploaded keep2share

Hot Teen Sex HD videos 2425

Sweet Teen Porn – Teena Dolly ryushare uploaded keep2share

Sweet Teen Porn – Teena Dolly

xxx new move hQ dawonlod ryushare uploaded keep2share

xxx new move hQ dawonlod

HD Sex World Videos High Definition Free Porn 224396 ryushare uploaded keep2share

HD Sex World Videos High Definition Free Porn 224396

Dunya – Dreams-HD ryushare uploaded keep2share

Dunya – Dreams-HD

Teena Dolly – Teena Lipoldino 140 Movies ryushare uploaded keep2share

Teena Dolly – Teena Lipoldino 140 Movies

Xxx 888 226518 ryushare uploaded keep2share

Xxx 888 226518

Teen porn movies 224453 ryushare uploaded keep2share

Teen porn movies 224453

Teens in Porno young porn videos and free teen sex 224928 ryushare uploaded keep2share

Teens in Porno young porn videos and free teen sex 224928

HD Sex World Videos High Definition Free Porn 4589 ryushare uploaded keep2share

HD Sex World Videos High Definition Free Porn 4589

Klixen Cindy Hope & Cipriana ryushare uploaded keep2share

Klixen Cindy Hope & Cipriana

Report broken links / Post a comment

You must be logged in to post a comment.



General\r\nComplete name : D:HD Teens Download Porn Sex clips movies Tube.xxxDGHSKTtyDGHSKTty.mp4\r\nFormat : MPEG-4\r\nFormat profile : Base Media\r\nCodec ID : isom\r\nFile size : 875 MiB\r\nDuration : 24mn 56s\r\nOverall bit rate mode : Variable\r\nOverall bit rate : 4 906 Kbps\r\nWriting application : Lavf52.93.0\r\n\r\nVideo\r\nID : 1\r\nFormat : AVC\r\nFormat/Info : Advanced Video Codec\r\nFormat profile : High@L3.1\r\nFormat settings, CABAC : Yes\r\nFormat settings, ReFrames : 4 frames\r\nCodec ID : avc1\r\nCodec ID/Info : Advanced Video Coding\r\nDuration : 24mn 56s\r\nBit rate : 4 800 Kbps\r\nWidth : 1 280 pixels\r\nHeight : 720 pixels\r\nDisplay aspect ratio : 16:9\r\nFrame rate mode : Constant\r\nFrame rate : 29.970 fps\r\nColor space : YUV\r\nChroma subsampling : 4:2:0\r\nBit depth : 8 bits\r\nScan type : Progressive\r\nBits/(Pixel*Frame) : 0.174\r\nStream size : 855 MiB (98%)\r\nWriting library : x264 core 107\r\nEncoding settings : cabac=1 / ref=3 / deblock=1:0:0 / analyse=0x3:0x113 / me=umh / subme=6 / psy=1 / psy_rd=1.00:0.00 / mixed_ref=1 / me_range=16 / chroma_me=1 / trellis=0 / 8x8dct=1 / cqm=0 / deadzone=21,11 / fast_pskip=1 / chroma_qp_offset=-2 / threads=1 / sliced_threads=0 / nr=0 / decimate=1 / interlaced=0 / constrained_intra=0 / bframes=2 / b_pyramid=2 / b_adapt=2 / b_bias=0 / direct=2 / weightb=1 / open_gop=0 / weightp=0 / keyint=30 / keyint_min=16 / scenecut=0 / intra_refresh=0 / rc_lookahead=30 / rc=abr / mbtree=1 / bitrate=4800 / ratetol=1.0 / qcomp=0.60 / qpmin=1 / qpmax=31 / qpstep=4 / ip_ratio=1.41 / aq=1:1.00\r\n\r\nAudio\r\nID : 2\r\nFormat : AAC\r\nFormat/Info : Advanced Audio Codec\r\nFormat profile : LC\r\nCodec ID : 40\r\nDuration : 24mn 56s\r\nBit rate mode : Variable\r\nBit rate : 106 Kbps\r\nChannel(s) : 2 channels\r\nChannel positions : Front: L R\r\nSampling rate : 44.1 KHz\r\nCompression mode : Lossy\r\nStream size : 18.9 MiB (2%)\r\n\r\n