Alexis Brill A Dose Of Pantyhose

TeenyLovers - ZlataPrivate - Share The Cock And Keep Cum

Posted in Amateur, HD Porn, Sex Movies, Teen | 14179 Views |


Rate this girl !!!




21FootArt.com 21Naturals.com 21Sextury.com Alexis Brill A Dose Of Pantyhose\r\n03.11.2013 All Sex Hardcore Foot Fetish 720p\r\n\r\nAlexis Brill A Dose Of Pantyhose\r\n\r\nAlexis Brill A Dose Of Pantyhose\r\n\r\nAlexis Brill A Dose Of Pantyhose\r\n\r\n\r\nFile: 21FootArt_Alexis_Brill_720p.mp4\r\nSize: 665720062 bytes (634.88 MiB), duration: 00:24:32, avg.bitrate: 3618 kb/s\r\nAudio: aac, 44100 Hz, stereo, s16, 116 kb/s (eng)\r\nVideo: MPEG4 Video (H264) 1280×720 25fps [VideoHandler – MPEG4 Video (H264) (eng)]\r\n



DOWNLOAD

Keep2share.cc - Uploaded.net - Openload.co - Rapidu.net


http://ryushare.com/1c490879eada/F00t.Al3.Br1l.rar
http://keep2share.cc/file/527bca5e856c8
http://turbobit.net/6zzxocxgd7rh.html
http://ul.to/gewo6c2t


Premium here:
uploaded.net
keep2share.cc
rapidu.net.cc

Teens related to Alexis Brill A Dose Of Pantyhose


Nude Teens fucking hard 224248 ryushare uploaded keep2share

Nude Teens fucking hard 224248

school porno movies ryushare uploaded keep2share

school porno movies

Babes Giselle Leon 1080p ryushare uploaded keep2share

Babes Giselle Leon 1080p

Sweet Teen Porn – Young Porn Videos 3834 ryushare uploaded keep2share

Sweet Teen Porn – Young Porn Videos 3834

xvideos hd com dounlod 226335 ryushare uploaded keep2share

xvideos hd com dounlod 226335

Kail – My Favorite Country ryushare uploaded keep2share

Kail – My Favorite Country

Teen porn movies 225402 ryushare uploaded keep2share

Teen porn movies 225402

bb xxx hd vdeo free ryushare uploaded keep2share

bb xxx hd vdeo free

Yes Xxx Long Videos High Difinition Porn Movies 226690 ryushare uploaded keep2share

Yes Xxx Long Videos High Difinition Porn Movies 226690

Hot Teen Sex HD videos 223872 ryushare uploaded keep2share

Hot Teen Sex HD videos 223872

English hot giral sex 226062 ryushare uploaded keep2share

English hot giral sex 226062

www8ten sex xxx com ryushare uploaded keep2share

www8ten sex xxx com

Porn party teen girls 225342 ryushare uploaded keep2share

Porn party teen girls 225342

Www porn movie mkv download com 226307 ryushare uploaded keep2share

Www porn movie mkv download com 226307

HD Teen Sex Tube 4271 ryushare uploaded keep2share

HD Teen Sex Tube 4271

High Definition Movies on HD 4195 ryushare uploaded keep2share

High Definition Movies on HD 4195

www xxx hq sex 2014 com ryushare uploaded keep2share

www xxx hq sex 2014 com

8 Teen XXX – Teen Sex 1972 ryushare uploaded keep2share

8 Teen XXX – Teen Sex 1972

Teen porn movies 225435 ryushare uploaded keep2share

Teen porn movies 225435

Tube Young Sex 224693 ryushare uploaded keep2share

Tube Young Sex 224693

hd hardcoresex teensex download 226688 ryushare uploaded keep2share

hd hardcoresex teensex download 226688

Young XXX Tube Videos 3931 ryushare uploaded keep2share

Young XXX Tube Videos 3931

HD Porn Teen Sex Videos 4207 ryushare uploaded keep2share

HD Porn Teen Sex Videos 4207

Movies Young legal porn 225865 ryushare uploaded keep2share

Movies Young legal porn 225865

HD Teens Sex Tube Videos XxX 225300 ryushare uploaded keep2share

HD Teens Sex Tube Videos XxX 225300

Good Teen Tube Sexy Young Naked Girls Movies 225493 ryushare uploaded keep2share

Good Teen Tube Sexy Young Naked Girls Movies 225493

Stevie Shae – Fuck It Like You Own It ryushare uploaded keep2share

Stevie Shae – Fuck It Like You Own It

Fresh Teen Videos 225259 ryushare uploaded keep2share

Fresh Teen Videos 225259

High Definition Movies on HD Teen Porn XXX Tube 2700 ryushare uploaded keep2share

High Definition Movies on HD Teen Porn XXX Tube 2700

Young Sex Movies 4563 ryushare uploaded keep2share

Young Sex Movies 4563

Porn HD Sex HD Teen Sex 4170 ryushare uploaded keep2share

Porn HD Sex HD Teen Sex 4170

FuckStudies.com El Storm ryushare uploaded keep2share

FuckStudies.com El Storm

Teen Porn XXX Tube 225214 ryushare uploaded keep2share

Teen Porn XXX Tube 225214

HD Porn Videos 4556 ryushare uploaded keep2share

HD Porn Videos 4556

Free High Quality Sex Movies 5482 ryushare uploaded keep2share

Free High Quality Sex Movies 5482

Report broken links / Post a comment

You must be logged in to post a comment.



General\r\nComplete name : H:HD TEENS PORN/DOWNLOAD/RYUSHARE/UPLOADED/KEEP2SHARE/TURBOBIT/xxx/21FootArt_Alexis_Brill_720p.mp4\r\nFormat : MPEG-4\r\nFormat profile : Base Media\r\nCodec ID : isom\r\nFile size : 635 MiB\r\nDuration : 24mn 32s\r\nOverall bit rate mode : Variable\r\nOverall bit rate : 3 616 Kbps\r\nWriting application : Lavf54.63.104\r\n\r\nVideo\r\nID : 1\r\nFormat : AVC\r\nFormat/Info : Advanced Video Codec\r\nFormat profile : High@L3.1\r\nFormat settings, CABAC : Yes\r\nFormat settings, ReFrames : 4 frames\r\nCodec ID : avc1\r\nCodec ID/Info : Advanced Video Coding\r\nDuration : 24mn 32s\r\nBit rate : 3 500 Kbps\r\nWidth : 1 280 pixels\r\nHeight : 720 pixels\r\nDisplay aspect ratio : 16:9\r\nFrame rate mode : Constant\r\nFrame rate : 25.000 fps\r\nColor space : YUV\r\nChroma subsampling : 4:2:0\r\nBit depth : 8 bits\r\nScan type : Progressive\r\nBits/(Pixel*Frame) : 0.152\r\nStream size : 613 MiB (97%)\r\nWriting library : x264 core 120\r\nEncoding settings : cabac=1 / ref=3 / deblock=1:0:0 / analyse=0x3:0x113 / me=hex / subme=6 / psy=1 / psy_rd=1.00:0.00 / mixed_ref=1 / me_range=16 / chroma_me=1 / trellis=2 / 8x8dct=1 / cqm=0 / deadzone=21,11 / fast_pskip=1 / chroma_qp_offset=-2 / threads=12 / sliced_threads=0 / nr=0 / decimate=1 / interlaced=0 / bluray_compat=0 / constrained_intra=0 / bframes=3 / b_pyramid=2 / b_adapt=2 / b_bias=0 / direct=1 / weightb=1 / open_gop=0 / weightp=2 / keyint=60 / keyint_min=25 / scenecut=40 / intra_refresh=0 / rc_lookahead=40 / rc=abr / mbtree=1 / bitrate=3500 / ratetol=1.0 / qcomp=0.60 / qpmin=0 / qpmax=69 / qpstep=4 / ip_ratio=1.41 / aq=1:1.00\r\nLanguage : English\r\n\r\nAudio\r\nID : 2\r\nFormat : AAC\r\nFormat/Info : Advanced Audio Codec\r\nFormat profile : LC\r\nCodec ID : 40\r\nDuration : 24mn 32s\r\nDuration_LastFrame : -22ms\r\nBit rate mode : Variable\r\nBit rate : 117 Kbps\r\nMaximum bit rate : 128 Kbps\r\nChannel(s) : 2 channels\r\nChannel positions : Front: L R\r\nSampling rate : 44.1 KHz\r\nCompression mode : Lossy\r\nDelay relative to video : 80ms\r\nStream size : 20.5 MiB (3%)\r\nLanguage : English\r\n\r\n