Anabelle Pync – Anabelle’s sensual tease – 2014

K Daniela - The Hand-foot-clampRemy's Edging Orgasm Control

Posted in HD Porn, Pornstar, Sex Movies, Teen | 22643 Views |


Rate this girl !!!




[Mark’s Head Bobbers & Hand Jobbers / Clips4Sale.com] Anabelle Pync (Anabelle’s sensual tease) [2014, Blowjob, Handjob, Cumshot, POV, 1080p]\r\n\r\n \r\n\r\npic\r\n\r\nName of the actress: Anabelle Pync\r\nName movie: Anabelle’s sensual tease\r\nSubsite and site: Mark’s Head Bobbers & Hand Jobbers / Clips4Sale.com\r\nProduction year: 2014\r\nGenre: Blowjob, Handjob, Cumshot, POV\r\nDuration: 00:21:07\r\nDescription: Anabelle uses her warm mouth, talented tongue, soft hands, and her tight pussy to slowly tease a cock until it erupts in total surrender … hot cum shoots into the air as Anabelle continues to lick and suck the shaft.\r\nHD Video Type: 1080p\r\nVideo Format: WMV\r\nVideo: Windows Media Video 8 1920×1080 6199kbps\r\nAudio: WMA 44100Hz stereo 128kbps 2\r\n\r\n \r\n\r\nAnabelle.wmv\r\n\r\n 



DOWNLOAD

Keep2share.cc - Uploaded.net - Openload.co - Rapidu.net


http://k2s.cc/file/7e93835e1adda/4n4b3ll3s_s3nsu4l_t34s3.wmv
http://played.to/yrlamxpzqktt
http://ryushare.com/09btdkw5p96r/4n4b3ll3s_s3nsu4l_t34s3.wmv

http://ul.to/50jpqzj7/4n4b3ll3s%20s3nsu4l%20t34s3.wmv


Premium here:
uploaded.net
keep2share.cc
rapidu.net.cc


Teens related to Anabelle Pync – Anabelle’s sensual tease – 2014


Hardcore sex videos in the high definition quality 1804 ryushare uploaded keep2share

Hardcore sex videos in the high definition quality 1804

Hd quality – Teen sex video 225399 ryushare uploaded keep2share

Hd quality – Teen sex video 225399

jaaz sex movis 226121 ryushare uploaded keep2share

jaaz sex movis 226121

Wow porn hd downloads 224283 ryushare uploaded keep2share

Wow porn hd downloads 224283

Fresh Teen Videos 2970 ryushare uploaded keep2share

Fresh Teen Videos 2970

Hd young videos 4525 ryushare uploaded keep2share

Hd young videos 4525

Teen porn xxx 225114 ryushare uploaded keep2share

Teen porn xxx 225114

Hot Teen Sex HD videos 2167 ryushare uploaded keep2share

Hot Teen Sex HD videos 2167

Teen porn movies 1954 ryushare uploaded keep2share

Teen porn movies 1954

Wow girls porn teens 4237 ryushare uploaded keep2share

Wow girls porn teens 4237

www xxx hq sex 2014 com ryushare uploaded keep2share

www xxx hq sex 2014 com

Free High Quality Sex Movies 225016 ryushare uploaded keep2share

Free High Quality Sex Movies 225016

Asustrlia sex videos hd com 226426 ryushare uploaded keep2share

Asustrlia sex videos hd com 226426

xxxvedio HD 18 year download ryushare uploaded keep2share

xxxvedio HD 18 year download

Teens fucked doggy style ryushare uploaded keep2share

Teens fucked doggy style

HD Teens Sex Tube Videos XxX 3653 ryushare uploaded keep2share

HD Teens Sex Tube Videos XxX 3653

High Definition Movies on HD 1683 ryushare uploaded keep2share

High Definition Movies on HD 1683

[Girlfriends.XxX] Zena Little, Victoria Puppy ryushare uploaded keep2share

[Girlfriends.XxX] Zena Little, Victoria Puppy

College Teen Sex 3556 ryushare uploaded keep2share

College Teen Sex 3556

Fucking in the shower with young blonde ryushare uploaded keep2share

Fucking in the shower with young blonde

Wow porn tube movies 4986 ryushare uploaded keep2share

Wow porn tube movies 4986

free high resolution porn movies 226717 ryushare uploaded keep2share

free high resolution porn movies 226717

Hd quality – Teen sex video 2175 ryushare uploaded keep2share

Hd quality – Teen sex video 2175

wow xxxvideoshd ryushare uploaded keep2share

wow xxxvideoshd

Tracy Smile – Soldier ryushare uploaded keep2share

Tracy Smile – Soldier

Nude Teens fucking hard 224248 ryushare uploaded keep2share

Nude Teens fucking hard 224248

Fucking a RedHair Sexy teen amateur ryushare uploaded keep2share

Fucking a RedHair Sexy teen amateur

Hd young videos 224038 ryushare uploaded keep2share

Hd young videos 224038

Watch Teen Sex Videos HD 4869 ryushare uploaded keep2share

Watch Teen Sex Videos HD 4869

Very hot brunette fucked ryushare uploaded keep2share

Very hot brunette fucked

www hd model sex telars hd com 226682 ryushare uploaded keep2share

www hd model sex telars hd com 226682

Wow porn tube movies 224325 ryushare uploaded keep2share

Wow porn tube movies 224325

Porn teen hd downloads 224098 ryushare uploaded keep2share

Porn teen hd downloads 224098

Teen Sex Porn Videos Free Nude Teens 225569 ryushare uploaded keep2share

Teen Sex Porn Videos Free Nude Teens 225569

titshed net tube 226095 ryushare uploaded keep2share

titshed net tube 226095

Report broken links / Post a comment

You must be logged in to post a comment.



General\r\nComplete name : D:hd teens porn download free onlineanabelles sensual t34s3.wmv\r\nFormat : Windows Media\r\nFile size : 987 MiB\r\nDuration : 21mn 7s\r\nOverall bit rate : 6 535 Kbps\r\nMaximum Overall bit rate : 6 459 Kbps\r\nEncoded date : UTC 1970-01-01 00:00:00.000\r\n\r\nVideo\r\nID : 1\r\nFormat : WMV2\r\nCodec ID : WMV2\r\nCodec ID/Info : Windows Media Video 8\r\nDescription of the codec : wmv2\r\nDuration : 21mn 7s\r\nBit rate : 6 139 Kbps\r\nWidth : 1 920 pixels\r\nHeight : 1 080 pixels\r\nDisplay aspect ratio : 16:9\r\nFrame rate : 29.970 fps\r\nBit depth : 8 bits\r\nBits/(Pixel*Frame) : 0.099\r\nStream size : 927 MiB (94%)\r\n\r\nAudio\r\nID : 2\r\nFormat : WMA\r\nFormat version : Version 2\r\nCodec ID : 161\r\nCodec ID/Info : Windows Media Audio\r\nDescription of the codec : Windows Media Audio V8\r\nDuration : 21mn 7s\r\nBit rate : 128 Kbps\r\nChannel(s) : 2 channels\r\nSampling rate : 44.1 KHz\r\nBit depth : 16 bits\r\nStream size : 19.3 MiB (2%)\r\n\r\n