Anal Awakening

Sandy Sweet – To Have And To FuckModel porno sex 3485

Posted in HD Porn, Pornstar, Sex Movies, Teen | 27480 Views |


Rate this girl !!!


(108 raters, 422 scores, average: 3.91 out of 5, 78.15%)

 [Caribbeancom.com] Beata Undine [082814-671] [2014 g., All Sex, Creampie, 1080p]
picSira Ichijyo
anaru jué xǐng / Anal’noye ProbuzhdeniyeGod proizvodstva: 2014 g. Podsayt i sayt: : Caribbeancom.com Studiynyy kod: : 081914-671

Zhanr : All Sex, Creampie
Prodolzhitel’nost’: 01:04:49

Tip video: 1080p Format video: mp4 Video kodek: H264 Audio kodek: AAC
Video: MPEG4 Video (H264) 1920×1080 60 fps 5000 kbps Audio: AAC 48000Hz stereo 170kbps

[Caribbeancom.com] Beata Undine [082814-671] [2014, All Sex, Creampie, 1080p]Sira Ichijyo
ア ナ ル 覚 醒 / Anal AwakeningYear: 2014 Sub-website and the website:: Caribbeancom.com Studio Code:: 081914-671

Genre: All Sex, Creampie
Duration: 1:04:49

Video Type: 1080p Video Format: mp4 Video Codec: H264 Audio codec: AAC
Video: MPEG4 Video (H264) 1920×1080 60 fps 5000 kbps Audio: AAC 48000Hz stereo 170kbps

http://i63.fastpic.ru/big/2014/0828/86/87b4e8cdbd32a3a67d6897aab13a2686.jpg


DOWNLOAD

Keep2share.cc - Uploaded.net - Openload.co - Rapidu.net



Premium here:
uploaded.net
keep2share.cc
rapidu.net.cc

Incoming search terms:

  • beata undine creampie


Teens related to Anal Awakening


Teen Sex Porn Videos Free Nude Teens 224697 ryushare uploaded keep2share

Teen Sex Porn Videos Free Nude Teens 224697

Denise Sky ryushare uploaded keep2share

Denise Sky

Teenage Fuck Clips 1939 ryushare uploaded keep2share

Teenage Fuck Clips 1939

Good Teen Tube Sexy Young Naked Girls Movies 2541 ryushare uploaded keep2share

Good Teen Tube Sexy Young Naked Girls Movies 2541

caprice videos xxx ryushare uploaded keep2share

caprice videos xxx

Young XXX Tube Videos 4887 ryushare uploaded keep2share

Young XXX Tube Videos 4887

Wow girls porn teens 3486 ryushare uploaded keep2share

Wow girls porn teens 3486

x videos mobi hd ryushare uploaded keep2share

x videos mobi hd

Amazing Outdoors – Beautiful Brunette ryushare uploaded keep2share

Amazing Outdoors – Beautiful Brunette

Emily – A date from sugar daddy sex chat ryushare uploaded keep2share

Emily – A date from sugar daddy sex chat

Fucking with young athlete ryushare uploaded keep2share

Fucking with young athlete

pornstar young pornstar 226548 ryushare uploaded keep2share

pornstar young pornstar 226548

www sex all world hd com 226654 ryushare uploaded keep2share

www sex all world hd com 226654

xxx videos hd 1280p com ryushare uploaded keep2share

xxx videos hd 1280p com

HD Porn Videos 4077 ryushare uploaded keep2share

HD Porn Videos 4077

Small girls and boys porn 2683 ryushare uploaded keep2share

Small girls and boys porn 2683

Hot Teen Sex 225853 ryushare uploaded keep2share

Hot Teen Sex 225853

Porn party teen girls 224803 ryushare uploaded keep2share

Porn party teen girls 224803

wwwsex beuty hd video 226570 ryushare uploaded keep2share

wwwsex beuty hd video 226570

Daisy, Jasmine – Boats n Hoes ryushare uploaded keep2share

Daisy, Jasmine – Boats n Hoes

High Definition Movies on HD Teen Porn XXX Tube 225706 ryushare uploaded keep2share

High Definition Movies on HD Teen Porn XXX Tube 225706

Hot download sex girls movies 224257 ryushare uploaded keep2share

Hot download sex girls movies 224257

Hd young videos 224870 ryushare uploaded keep2share

Hd young videos 224870

Anjelica – My Inner Feelings ryushare uploaded keep2share

Anjelica – My Inner Feelings

HD Sex World Videos High Definition Free Porn 225951 ryushare uploaded keep2share

HD Sex World Videos High Definition Free Porn 225951

Hd young videos 3698 ryushare uploaded keep2share

Hd young videos 3698

Victoria Paradice – Where Did That Ass Come From ryushare uploaded keep2share

Victoria Paradice – Where Did That Ass Come From

Young XXX Tube Videos 1801 ryushare uploaded keep2share

Young XXX Tube Videos 1801

High Definition Movies on HD Teen Porn XXX Tube 3652 ryushare uploaded keep2share

High Definition Movies on HD Teen Porn XXX Tube 3652

Hd young videos 225366 ryushare uploaded keep2share

Hd young videos 225366

Dunya – Dreams-HD ryushare uploaded keep2share

Dunya – Dreams-HD

Teen Porn XXX Tube 224141 ryushare uploaded keep2share

Teen Porn XXX Tube 224141

High Definition Movies on HD 1647 ryushare uploaded keep2share

High Definition Movies on HD 1647

Scarlet, Christine – Fantasy Come True ryushare uploaded keep2share

Scarlet, Christine – Fantasy Come True

Teen 18 Porn XXX Clips Naked 3189 ryushare uploaded keep2share

Teen 18 Porn XXX Clips Naked 3189

Report broken links / Post a comment

You must be logged in to post a comment.



General
Complete name : D:Anal Awakening Beata Undine .mp4
Format : MPEG-4
Format profile : Base Media
Codec ID : isom
File size : 2.35 GiB
Duration : 1h 4mn
Overall bit rate mode : Variable
Overall bit rate : 5 181 Kbps
Encoded date : UTC 2014-08-17 18:22:30
Tagged date : UTC 2014-08-17 18:22:30
Writing application : Lavf54.6.100

Video
ID : 1
Format : AVC
Format/Info : Advanced Video Codec
Format profile : High@L4.2
Format settings, CABAC : Yes
Format settings, ReFrames : 4 frames
Codec ID : avc1
Codec ID/Info : Advanced Video Coding
Duration : 1h 4mn
Bit rate : 5 000 Kbps
Width : 1 920 pixels
Height : 1 080 pixels
Display aspect ratio : 16:9
Frame rate mode : Constant
Frame rate : 59.940 fps
Color space : YUV
Chroma subsampling : 4:2:0
Bit depth : 8 bits
Scan type : Progressive
Bits/(Pixel*Frame) : 0.040
Stream size : 2.26 GiB (97%)
Writing library : x264 core 129
Encoding settings : cabac=1 / ref=3 / deblock=1:0:0 / analyse=0x3:0x113 / me=hex / subme=7 / psy=1 / psy_rd=1.00:0.00 / mixed_ref=1 / me_range=16 / chroma_me=1 / trellis=1 / 8x8dct=1 / cqm=0 / deadzone=21,11 / fast_pskip=1 / chroma_qp_offset=-2 / threads=18 / lookahead_threads=3 / sliced_threads=0 / nr=0 / decimate=1 / interlaced=0 / bluray_compat=0 / constrained_intra=0 / bframes=3 / b_pyramid=2 / b_adapt=1 / b_bias=0 / direct=1 / weightb=1 / open_gop=0 / weightp=2 / keyint=250 / keyint_min=25 / scenecut=40 / intra_refresh=0 / rc_lookahead=40 / rc=2pass / mbtree=1 / bitrate=5000 / ratetol=1.0 / qcomp=0.60 / qpmin=0 / qpmax=69 / qpstep=4 / cplxblur=20.0 / qblur=0.5 / ip_ratio=1.40 / aq=1:1.00
Encoded date : UTC 2014-08-17 18:22:30
Tagged date : UTC 2014-08-17 18:22:30

Audio
ID : 2
Format : AAC
Format/Info : Advanced Audio Codec
Format profile : LC
Codec ID : 40
Duration : 1h 4mn
Bit rate mode : Variable
Bit rate : 168 Kbps
Maximum bit rate : 192 Kbps
Channel(s) : 2 channels
Channel positions : Front: L R
Sampling rate : 48.0 KHz
Compression mode : Lossy
Stream size : 77.9 MiB (3%)
Encoded date : UTC 2014-08-17 18:22:30
Tagged date : UTC 2014-08-17 18:22:30