Argentina loves showing off her nice big boobs

Argentina and AnfisaHigh Definition Movies on HD Teen Porn XXX Tube 1708

Posted in HD Porn, Pornstar, Sex Movies, Teen | 8673 Views |


Rate this girl !!!




pic\r\n\r\nargentina-hd-1_thumb\r\n\r\nVideo Type: 1080p\r\nVideo Format: WMV\r\nVideo: Windows Media Video 9 1920×1080 29.97fps 4750kbps\r\nAudio: Windows Media Audio 44100Hz stereo 128kbps



DOWNLOAD

Keep2share.cc - Uploaded.net - Openload.co - Rapidu.net


http://ryushare.com/wv3uzhrh50vl/arg3ntinahd.rar
http://keep2share.cc/file/81b0d4ece66de
http://ul.to/plgwstyj



Premium here:
uploaded.net
keep2share.cc
rapidu.net.cc

Teens related to Argentina loves showing off her nice big boobs


hq hd pron pussy free downlode 226077 ryushare uploaded keep2share

hq hd pron pussy free downlode 226077

High Definition Movies on HD 4675 ryushare uploaded keep2share

High Definition Movies on HD 4675

Hot Teen Sex HD videos 225101 ryushare uploaded keep2share

Hot Teen Sex HD videos 225101

dowanload porn short hd ryushare uploaded keep2share

dowanload porn short hd

yang garl sex movi 226280 ryushare uploaded keep2share

yang garl sex movi 226280

bonksex videos ryushare uploaded keep2share

bonksex videos

wallpaper of XXX on bed boys and girl 226347 ryushare uploaded keep2share

wallpaper of XXX on bed boys and girl 226347

High Definition Movies on HD Teen Porn XXX Tube 1854 ryushare uploaded keep2share

High Definition Movies on HD Teen Porn XXX Tube 1854

Teen porn movies 225314 ryushare uploaded keep2share

Teen porn movies 225314

Christina Snow – NubilesFilms – Join In ryushare uploaded keep2share

Christina Snow – NubilesFilms – Join In

edge orgasm ryushare uploaded keep2share

edge orgasm

Hardcore Sex Hub 4013 ryushare uploaded keep2share

Hardcore Sex Hub 4013

nude hot 226040 ryushare uploaded keep2share

nude hot 226040

Two Teasing Tongues 10 – A ryushare uploaded keep2share

Two Teasing Tongues 10 – A

Girls do porn in HD 224797 ryushare uploaded keep2share

Girls do porn in HD 224797

18xGirls Fucked Virgin teen ryushare uploaded keep2share

18xGirls Fucked Virgin teen

J. Joanna (Shoot It For Me / 15.12.13) ryushare uploaded keep2share

J. Joanna (Shoot It For Me / 15.12.13)

www xxx Bif videos HD ryushare uploaded keep2share

www xxx Bif videos HD

Free High Quality Sex Movies 1698 ryushare uploaded keep2share

Free High Quality Sex Movies 1698

Creampie-Angels.com Licie ryushare uploaded keep2share

Creampie-Angels.com Licie

Beautiful small tits blonde ryushare uploaded keep2share

Beautiful small tits blonde

Amateur Teen Sex 2320 ryushare uploaded keep2share

Amateur Teen Sex 2320

Teen 18 Porn XXX Clips Naked 3465 ryushare uploaded keep2share

Teen 18 Porn XXX Clips Naked 3465

Young Virgin Pussy Teen Fuck Tube 4403 ryushare uploaded keep2share

Young Virgin Pussy Teen Fuck Tube 4403

Movies Young legal porn 225237 ryushare uploaded keep2share

Movies Young legal porn 225237

Wow porn hd downloads 225065 ryushare uploaded keep2share

Wow porn hd downloads 225065

Wow porn tube movies 4671 ryushare uploaded keep2share

Wow porn tube movies 4671

Porn party teen girls 224442 ryushare uploaded keep2share

Porn party teen girls 224442

Ivy & Uma Zen – Two Girls ryushare uploaded keep2share

Ivy & Uma Zen – Two Girls

HD sex movies downloads 3866 ryushare uploaded keep2share

HD sex movies downloads 3866

pon ster xxxxxx ryushare uploaded keep2share

pon ster xxxxxx

Alice – The Repairman’s Groupie – Episode 413 ryushare uploaded keep2share

Alice – The Repairman’s Groupie – Episode 413

Teenies Videos – Teen Porn, Teen Sex, XXX Free Videos 4444 ryushare uploaded keep2share

Teenies Videos – Teen Porn, Teen Sex, XXX Free Videos 4444

8 Teen XXX – Teen Sex 4220 ryushare uploaded keep2share

8 Teen XXX – Teen Sex 4220

Watch Teen Sex Videos HD 225363 ryushare uploaded keep2share

Watch Teen Sex Videos HD 225363

Report broken links / Post a comment

You must be logged in to post a comment.



General\r\nComplete name : D:HD Teens Download Porn Sex clips movies Tube.xxxarg3ntina-hd-1.wmv\r\nFormat : Windows Media\r\nFile size : 961 MiB\r\nDuration : 27mn 23s\r\nOverall bit rate mode : Variable\r\nOverall bit rate : 4 903 Kbps\r\nMaximum Overall bit rate : 8 783 Kbps\r\nMovie name : Download from HDteenmania.com\r\nEncoded date : UTC 2012-09-06 00:13:16.366\r\nComment : Download from HDteenmania.com\r\nEncoded_With : Sorenson Squeeze\r\nMediaFoundationVersion : 2.112\r\n\r\nVideo\r\nID : 31\r\nFormat : VC-1\r\nFormat profile : Advanced@L3\r\nCodec ID : WVC1\r\nCodec ID/Hint : Microsoft\r\nDescription of the codec : Windows Media Video 9 Advanced Profile\r\nDuration : 27mn 23s\r\nBit rate mode : Variable\r\nBit rate : 4 750 Kbps\r\nWidth : 1 920 pixels\r\nHeight : 1 080 pixels\r\nDisplay aspect ratio : 16:9\r\nFrame rate : 29.970 fps\r\nColor space : YUV\r\nChroma subsampling : 4:2:0\r\nBit depth : 8 bits\r\nScan type : Progressive\r\nCompression mode : Lossy\r\nBits/(Pixel*Frame) : 0.076\r\nStream size : 931 MiB (97%)\r\n\r\nAudio\r\nID : 1\r\nFormat : WMA\r\nFormat profile : Pro\r\nCodec ID : 162\r\nCodec ID/Info : Windows Media Audio\r\nDescription of the codec : Windows Media Audio 10 Professional - 128 kbps, 44 kHz, 2 channel 24 bit (A/V) 1-pass CBR\r\nDuration : 27mn 23s\r\nBit rate mode : Constant\r\nBit rate : 128 Kbps\r\nChannel(s) : 2 channels\r\nSampling rate : 44.1 KHz\r\nBit depth : 24 bits\r\nStream size : 25.1 MiB (3%)\r\n\r\n