Babes.com Linda Sweet, Susan Ayn, Victoria Daniels

Babes.com Nataly Gold, Silvia Lauren – A guiding handWowPorn.com Michelle,The Primal Need For Love. RED

Posted in HD Porn, Sex Movies, Teen, Threesome | 11359 Views |


Rate this girl !!!




cover\r\n\r\n1920x1080p / MP4 / 1.14 GB\r\n

[Babes.com] Linda Sweet, Susan Ayn, Victoria Daniels – Let’s have a foursome

\r\nSCREENSHOTS:\r\n\r\nscreens



DOWNLOAD

Keep2share.cc - Uploaded.net - Openload.co - Rapidu.net


http://played.to/bc4vfmv8qm10

http://ul.to/hqcnb92u/b4b3s.bggg.l1nd4.v1ctor14.svs4n.pho83114.1o8op.6ooo.mp4


Premium here:
uploaded.net
keep2share.cc
rapidu.net.cc


Teens related to Babes.com Linda Sweet, Susan Ayn, Victoria Daniels


Free High Quality Sex Movies 1901 ryushare uploaded keep2share

Free High Quality Sex Movies 1901

Hd quality – Teen sex video 1289 ryushare uploaded keep2share

Hd quality – Teen sex video 1289

Teen porn movies 2671 ryushare uploaded keep2share

Teen porn movies 2671

fucking sex hd download 226750 ryushare uploaded keep2share

fucking sex hd download 226750

hd video 1080hd pron downlod direct ryushare uploaded keep2share

hd video 1080hd pron downlod direct

Hardcore Sex Hub 1315 ryushare uploaded keep2share

Hardcore Sex Hub 1315

Amateur Teen Sex 3530 ryushare uploaded keep2share

Amateur Teen Sex 3530

HD porn uploaded 2790 ryushare uploaded keep2share

HD porn uploaded 2790

Girls sex art hd teens videos 224625 ryushare uploaded keep2share

Girls sex art hd teens videos 224625

free sex movies ppran ryushare uploaded keep2share

free sex movies ppran

Young Virgin Pussy Teen Fuck Tube 2315 ryushare uploaded keep2share

Young Virgin Pussy Teen Fuck Tube 2315

Porn teen hd downloads 224098 ryushare uploaded keep2share

Porn teen hd downloads 224098

Young xxx 225438 ryushare uploaded keep2share

Young xxx 225438

xxx video sex porno 226546 ryushare uploaded keep2share

xxx video sex porno 226546

www xxx hq sex 2014 com ryushare uploaded keep2share

www xxx hq sex 2014 com

Orgy with young teens ryushare uploaded keep2share

Orgy with young teens

Hot Teen Sex HD videos 224002 ryushare uploaded keep2share

Hot Teen Sex HD videos 224002

Hardcore sex videos in the high definition quality 223959 ryushare uploaded keep2share

Hardcore sex videos in the high definition quality 223959

Teen porn movies 1460 ryushare uploaded keep2share

Teen porn movies 1460

Teens sex mania 225690 ryushare uploaded keep2share

Teens sex mania 225690

xxx movies hd for mobile com ryushare uploaded keep2share

xxx movies hd for mobile com

Elly (My Secret Lover) ryushare uploaded keep2share

Elly (My Secret Lover)

Brandy Naughty – First Time Auditions ryushare uploaded keep2share

Brandy Naughty – First Time Auditions

avi full hd porn 226178 ryushare uploaded keep2share

avi full hd porn 226178

Good Teen Tube Sexy Young Naked Girls Movies 224527 ryushare uploaded keep2share

Good Teen Tube Sexy Young Naked Girls Movies 224527

Hd young videos 4536 ryushare uploaded keep2share

Hd young videos 4536

Alice – The Repairman’s Groupie – Episode 413 ryushare uploaded keep2share

Alice – The Repairman’s Groupie – Episode 413

Kail Takes on Two Horny Studs for some fun ryushare uploaded keep2share

Kail Takes on Two Horny Studs for some fun

Tube Young Sex 224260 ryushare uploaded keep2share

Tube Young Sex 224260

Taissia Shanti – Hot and Steamy ryushare uploaded keep2share

Taissia Shanti – Hot and Steamy

Fresh Teen Videos 4156 ryushare uploaded keep2share

Fresh Teen Videos 4156

Teen xxx sex hd 223813 ryushare uploaded keep2share

Teen xxx sex hd 223813

Porno movies young teens lesbian 224607 ryushare uploaded keep2share

Porno movies young teens lesbian 224607

Fucking girl in stockings ryushare uploaded keep2share

Fucking girl in stockings

Wow Girls Porn Clips download 5439 ryushare uploaded keep2share

Wow Girls Porn Clips download 5439

Report broken links / Post a comment

You must be logged in to post a comment.



[Babes.com] Linda Sweet, Susan Ayn, Victoria Daniels – Let’s have a foursome \r\n\r\nGeneral\r\nComplete name : J:HD Teens Movies Young Downloads Online Clips Scenes [Babes.com] Linda Sweet, Susan Ayn, Victoria Daniels – Let’s have a foursome .1o8op.6ooo.mp4\r\nFormat : MPEG-4\r\nFormat profile : Base Media\r\nCodec ID : isom\r\nFile size : 1.14 GiB\r\nDuration : 25mn 37s\r\nOverall bit rate : 6 394 Kbps\r\nWriting application : Lavf55.33.100\r\n\r\nVideo\r\nID : 1\r\nFormat : AVC\r\nFormat/Info : Advanced Video Codec\r\nFormat profile : High@L4.1\r\nFormat settings, CABAC : Yes\r\nFormat settings, ReFrames : 5 frames\r\nCodec ID : avc1\r\nCodec ID/Info : Advanced Video Coding\r\nDuration : 25mn 37s\r\nBit rate : 6 000 Kbps\r\nWidth : 1 920 pixels\r\nHeight : 1 080 pixels\r\nDisplay aspect ratio : 16:9\r\nFrame rate mode : Constant\r\nFrame rate : 23.976 fps\r\nColor space : YUV\r\nChroma subsampling : 4:2:0\r\nBit depth : 8 bits\r\nScan type : Progressive\r\nBits/(Pixel*Frame) : 0.121\r\nStream size : 1.07 GiB (94%)\r\nWriting library : x264 core 142 r2389 956c8d8\r\nEncoding settings : cabac=1 / ref=5 / deblock=1:0:0 / analyse=0x3:0x113 / me=umh / subme=8 / psy=1 / psy_rd=1.00:0.00 / mixed_ref=1 / me_range=16 / chroma_me=1 / trellis=1 / 8x8dct=1 / cqm=0 / deadzone=21,11 / fast_pskip=1 / chroma_qp_offset=-2 / threads=6 / lookahead_threads=1 / sliced_threads=0 / nr=0 / decimate=1 / interlaced=0 / bluray_compat=0 / constrained_intra=0 / bframes=3 / b_pyramid=2 / b_adapt=2 / b_bias=0 / direct=3 / weightb=1 / open_gop=0 / weightp=2 / keyint=60 / keyint_min=6 / scenecut=40 / intra_refresh=0 / rc_lookahead=50 / rc=abr / mbtree=1 / bitrate=6000 / ratetol=1.0 / qcomp=0.60 / qpmin=0 / qpmax=69 / qpstep=4 / ip_ratio=1.40 / aq=1:1.00\r\nTagged date : UTC 2014-10-15 03:44:50\r\n\r\nAudio\r\nID : 2\r\nFormat : AAC\r\nFormat/Info : Advanced Audio Codec\r\nFormat profile : LC\r\nCodec ID : 40\r\nDuration : 25mn 37s\r\nDuration_LastFrame : -9ms\r\nBit rate mode : Constant\r\nBit rate : 128 Kbps\r\nChannel count : 2 channels\r\nChannel positions : Front: L R\r\nSampling rate : 48.0 KHz\r\nCompression mode : Lossy\r\nStream size : 23.5 MiB (2%)\r\nTagged date : UTC 2014-10-15 03:44:50\r\n\r\n