Backyard Amateurs (3 scenes)

Grace and Kimmie - Friend of a Friend18OnlyGirls - Natasha - 25 Clips Video Pack

Posted in Amateur, HD Porn, Sex Movies | 6781 Views |


Rate this girl !!!


(11 raters, 39 scores, average: 3.55 out of 5, 70.91%)

Backyard Amateurs (3 scenes)

Backyard Amateurs (3 scenes)

Backyard Amateurs (3 scenes)

Backyard Amateurs (3 scenes)

Backyard Amateurs (3 scenes)

Backyard Amateurs (3 scenes)

Files: H:Backyard Amateurs 22 – 3 Scene Clips
Audio: wmav2, 48000 Hz, 2 channels, s16, 128 kb/s (eng)
Video: wmv2, yuv420p, 720×480, 250 kb/s, 29.97 fps(r) (eng)



DOWNLOAD

Keep2share.cc - Uploaded.net - Openload.co - Rapidu.net



Premium here:
uploaded.net
keep2share.cc
rapidu.net.cc

Incoming search terms:

  • xteenpıes com
  • Hdsexgirlsimage
  • Tube8hdvideodownload
  • Russian cum girls porn
  • rubateen legal babe
  • Hot Teen massage xxx
  • teen cumchost sex
  • teen18xx
  • hdsexgirlsphoto
  • cum shot porn


Tags: , , , ,

Teens related to Backyard Amateurs (3 scenes)


Girls sex art hd teens videos 5327 ryushare uploaded keep2share

Girls sex art hd teens videos 5327

Wow porn hd downloads 224185 ryushare uploaded keep2share

Wow porn hd downloads 224185

Good Teen Tube Sexy Young Naked Girls Movies 1543 ryushare uploaded keep2share

Good Teen Tube Sexy Young Naked Girls Movies 1543

xxx movies hd for mobile com ryushare uploaded keep2share

xxx movies hd for mobile com

HD Porn Videos 4503 ryushare uploaded keep2share

HD Porn Videos 4503

Porn HD Sex HD Teen Sex 224487 ryushare uploaded keep2share

Porn HD Sex HD Teen Sex 224487

www xxx hq sex 2014 com ryushare uploaded keep2share

www xxx hq sex 2014 com

Watch Teen Sex Videos HD 4135 ryushare uploaded keep2share

Watch Teen Sex Videos HD 4135

pc xxx movie clips 226764 ryushare uploaded keep2share

pc xxx movie clips 226764

Porn party teen girls 225425 ryushare uploaded keep2share

Porn party teen girls 225425

xxxvidohd donlwd com ryushare uploaded keep2share

xxxvidohd donlwd com

GirlsDoPorn – 19 Years Old Girl – Legal Teens ryushare uploaded keep2share

GirlsDoPorn – 19 Years Old Girl – Legal Teens

Young Sex Movies 4459 ryushare uploaded keep2share

Young Sex Movies 4459

Wow girls hd porn teens 224337 ryushare uploaded keep2share

Wow girls hd porn teens 224337

www hd video 18 xxx 226637 ryushare uploaded keep2share

www hd video 18 xxx 226637

www hd sex world moves 226438 ryushare uploaded keep2share

www hd sex world moves 226438

Hot download sex girls movies 225819 ryushare uploaded keep2share

Hot download sex girls movies 225819

Adult Hardcore XXX Sex Videos 3788 ryushare uploaded keep2share

Adult Hardcore XXX Sex Videos 3788

Katy Rose & Lutro – Lubricous ryushare uploaded keep2share

Katy Rose & Lutro – Lubricous

www x hd video dowanloding ryushare uploaded keep2share

www x hd video dowanloding

Teenage Fuck Clips 3405 ryushare uploaded keep2share

Teenage Fuck Clips 3405

17sex viodeos 226514 ryushare uploaded keep2share

17sex viodeos 226514

Vintage Collection – The Photographer ryushare uploaded keep2share

Vintage Collection – The Photographer

YoungLegalPorn Bella Baby And Carla Cox Advanced Bonking ryushare uploaded keep2share

YoungLegalPorn Bella Baby And Carla Cox Advanced Bonking

Eva, Alberta, Niona, Nora – Sex party ryushare uploaded keep2share

Eva, Alberta, Niona, Nora – Sex party

Kail – My Favorite Country ryushare uploaded keep2share

Kail – My Favorite Country

pon ster xxxxxx ryushare uploaded keep2share

pon ster xxxxxx

Www Xxxsex video18 ryushare uploaded keep2share

Www Xxxsex video18

zazzers com Full HD ryushare uploaded keep2share

zazzers com Full HD

TrickyMasseur.com Raquel ryushare uploaded keep2share

TrickyMasseur.com Raquel

Hot hd teen sex videos 3748 ryushare uploaded keep2share

Hot hd teen sex videos 3748

Free Young Porn Videos XXX Teen Porn 2569 ryushare uploaded keep2share

Free Young Porn Videos XXX Teen Porn 2569

HD Teen Sex Tube 223714 ryushare uploaded keep2share

HD Teen Sex Tube 223714

First time Sexual Films 18 sex xxx 225737 ryushare uploaded keep2share

First time Sexual Films 18 sex xxx 225737

Teenies Videos – Teen Porn, Teen Sex, XXX Free Videos 5201 ryushare uploaded keep2share

Teenies Videos – Teen Porn, Teen Sex, XXX Free Videos 5201

Report broken links / Post a comment

You must be logged in to post a comment.



General
Complete name : H:HD TEENS PORNDOWNLOADRYUSHAREUPLOADEDKEEP2SHARE\Backyard Amateurs 22Backyard_Amateurs_22_Scene_1.wmv
Format : Windows Media
File size : 764 MiB
Duration : 20mn 23s
Overall bit rate mode : Variable
Overall bit rate : 5 240 Kbps
Maximum Overall bit rate : 388 Kbps
Movie name : Backyard Amateurs #22, Scene 1
Encoded date : UTC 2013-03-16 00:17:57.724

Video
ID : 2
Format : WMV2
Codec ID : WMV2
Codec ID/Info : Windows Media Video 8
Description of the codec : Windows Media Video V8
Duration : 20mn 23s
Bit rate mode : Variable
Bit rate : 250 Kbps
Width : 720 pixels
Height : 480 pixels
Display aspect ratio : 3:2
Frame rate : 29.970 fps
Standard : NTSC
Bit depth : 8 bits
Bits/(Pixel*Frame) : 0.024
Stream size : 36.5 MiB (5%)
Language : English (US)

Audio
ID : 1
Format : WMA
Format version : Version 2
Codec ID : 161
Codec ID/Info : Windows Media Audio
Description of the codec : Windows Media Audio 9.2 - 128 kbps, 48 kHz, stereo (A/V) 1-pass CBR
Duration : 20mn 23s
Bit rate mode : Constant
Bit rate : 128 Kbps
Channel(s) : 2 channels
Sampling rate : 48.0 KHz
Bit depth : 16 bits
Stream size : 18.7 MiB (2%)
Language : English (US)