Beata – Sharing A Nymph

ClubSeventeen.com SiteRip - Part 3Katarinka - Russian Teen - Pack 45 clips

Posted in HD Porn, Pornstar, Sex Movies, Teen, Threesome | Posted on 29-12-2013 | 14183 Views | FavoriteLoadingAdd to favorites

Rate this girl !!!



(54 raters, 210 scores, average: 3.89 out of 5, 77.78%)


[18OnlyGirls.com / WowFandom.com] Beata (Sharing A Nymph / 22.12.13) [2013, All Sex, 1080p]

pic

Beata – Sharing A Nymph 1080p mp4
Duration: 00:18:10
Type HD video: 1080p
Video Format: MP4
Video codec: H.264/AVC
Audio codec: AAC
Video: MPEG4 Video (H264) 1920×1080 29.97fps 6463kbps
Audio: AAC 44100Hz stereo 91kbps

http://www.hdteenmania.com/porn/uploads/2013/12/6e1e227e4c85161b9f6ec008eb5a85a7.jpg

 

 

 

 




Premium here:
uploaded.net
keep2share.cc

Incoming search terms:

  • wwwxxxsexvideos
  • hdxxxsexvideos
  • teentitstube
  • 18 girl xxx
  • sweet sex and love mp4
  • hdxxxsexvidoes
  • xxxsxeHDvideos in
  • 18xgirls movies
  • sxehdvedios
  • www beata xxx com
  • sxehdvideos com
  • xxx video hot net
  • sxehdvideos
  • hot ass xxx sxe hd videos com
  • HD Love xxx
  • russian porn hd
  • hot sex videos download mp4
  • www beata xxx sexi video
  • 18yeargirlfuck
  • Beautifull girl fuck
  • 069 com porn
  • hot porno sex handjob
  • nymph xxx
  • www love hd xxx com
  • xxx big beautifull


Tags: , , , , , , , , , , , , , , , , , , , , , , ,

Teens related to Beata – Sharing A Nymph


Report broken links / Post a comment

You must be logged in to post a comment.



General
Complete name : D:Beata Sharing_A_Nymph_HD1080.mp4
Format : MPEG-4
Format profile : Base Media
Codec ID : isom
File size : 853 MiB
Duration : 18mn 10s
Overall bit rate mode : Variable
Overall bit rate : 6 561 Kbps
Writing application : Lavf52.64.2

Video
ID : 1
Format : AVC
Format/Info : Advanced Video Codec
Format profile : High@L4.0
Format settings, CABAC : Yes
Format settings, ReFrames : 2 frames
Codec ID : avc1
Codec ID/Info : Advanced Video Coding
Duration : 18mn 10s
Bit rate : 6 464 Kbps
Width : 1 920 pixels
Height : 1 080 pixels
Display aspect ratio : 16:9
Frame rate mode : Constant
Frame rate : 29.970 fps
Color space : YUV
Chroma subsampling : 4:2:0
Bit depth : 8 bits
Scan type : Progressive
Bits/(Pixel*Frame) : 0.104
Stream size : 840 MiB (99%)
Writing library : x264 core 102 r1666 d058f37
Encoding settings : cabac=1 / ref=2 / deblock=1:0:0 / analyse=0x3:0x113 / me=hex / subme=6 / psy=1 / psy_rd=1.00:0.00 / mixed_ref=0 / me_range=16 / chroma_me=1 / trellis=0 / 8x8dct=1 / cqm=0 / deadzone=21,11 / fast_pskip=1 / chroma_qp_offset=-2 / threads=24 / sliced_threads=0 / nr=0 / decimate=1 / interlaced=0 / constrained_intra=0 / bframes=3 / b_pyramid=0 / b_adapt=1 / b_bias=0 / direct=3 / weightb=1 / open_gop=0 / weightp=2 / keyint=250 / keyint_min=25 / scenecut=40 / intra_refresh=0 / rc_lookahead=40 / rc=crf / mbtree=1 / crf=20.0 / qcomp=0.60 / qpmin=10 / qpmax=51 / qpstep=4 / ip_ratio=1.41 / aq=1:1.00

Audio
ID : 2
Format : AAC
Format/Info : Advanced Audio Codec
Format profile : LC
Codec ID : 40
Duration : 18mn 10s
Bit rate mode : Variable
Bit rate : 91.5 Kbps
Channel count : 2 channels
Channel positions : Front: L R
Sampling rate : 44.1 KHz
Compression mode : Lossy
Delay relative to video : 33ms
Stream size : 11.9 MiB (1%)