Beata Undine – cumshot compilation

Welcome To The Wild / BeataClubSeventeen.com home alone teens 02 06

Posted in HD Porn, Pornstar, Sex Movies, Teen | 10674 Views |


Rate this girl !!!


(16 raters, 59 scores, average: 3.69 out of 5, 73.75%)

Beata Undine “cumshot compilation” / Charming girl [Compilation, 720p]

Genre : Compilation
Duration : 00:08:47
Description: Unfortunately I do not know that interesting to write about this beautiful girl started acting in twenty years for the site in ’08 and is still running successfully . Withdrawn from the famous erotic studios, but will not hesitate to give and ass , acting basically just for your site , but was on the casting at Woodman ( bald zhirobas was extremely pleased by the way) . Love the face Beata not compare with silicone zabugornom aunts , not long ago lil scene with Jesse Jane and wondered , such dolls can be so popular when there are real girls here .
Type HD video : 720p
Video Format : MP4
Video codec: MPEG2
Audio codec : AAC
Video : MPEG4 Video 1280×720 30fps 4097kbps [Video]
Audio : AAC 48000Hz stereo 165kbps [Audio]



DOWNLOAD

Keep2share.cc - Uploaded.net - Openload.co - Rapidu.net



Premium here:
uploaded.net
keep2share.cc
rapidu.net.cc

Teens related to Beata Undine – cumshot compilation


Good Teen Tube Sexy Young Naked Girls Movies 1427 ryushare uploaded keep2share

Good Teen Tube Sexy Young Naked Girls Movies 1427

8 Teen XXX – Teen Sex 1807 ryushare uploaded keep2share

8 Teen XXX – Teen Sex 1807

Hot Teen Sex HD videos 224002 ryushare uploaded keep2share

Hot Teen Sex HD videos 224002

HD Teen Sex Tube 225339 ryushare uploaded keep2share

HD Teen Sex Tube 225339

Sex in bed with beautiful redhead ryushare uploaded keep2share

Sex in bed with beautiful redhead

xxxvidohd donlwd com ryushare uploaded keep2share

xxxvidohd donlwd com

Uploaded net porn 3849 ryushare uploaded keep2share

Uploaded net porn 3849

HQ Sex Movies Download 1850 ryushare uploaded keep2share

HQ Sex Movies Download 1850

Nude Teens fucking hard 2774 ryushare uploaded keep2share

Nude Teens fucking hard 2774

Free Teen Porn – Redhair teen XXX ryushare uploaded keep2share

Free Teen Porn – Redhair teen XXX

Teen xxx sex hd 5505 ryushare uploaded keep2share

Teen xxx sex hd 5505

WowGirls Livia Grace C Getting Off Without A Cock ryushare uploaded keep2share

WowGirls Livia Grace C Getting Off Without A Cock

Jessica – Model Couple on Vacation ryushare uploaded keep2share

Jessica – Model Couple on Vacation

teensex mp4 hd download 226542 ryushare uploaded keep2share

teensex mp4 hd download 226542

Free Teen Porn Videos at Teen Sex Tube XXX 3801 ryushare uploaded keep2share

Free Teen Porn Videos at Teen Sex Tube XXX 3801

H D SEXI VIDEO com 226526 ryushare uploaded keep2share

H D SEXI VIDEO com 226526

JoyMii.com – Ivy, Fuck Me ryushare uploaded keep2share

JoyMii.com – Ivy, Fuck Me

Wow porn hd downloads 224035 ryushare uploaded keep2share

Wow porn hd downloads 224035

Hardcore Sex Hub 225185 ryushare uploaded keep2share

Hardcore Sex Hub 225185

www pinkworld hd movies com 226583 ryushare uploaded keep2share

www pinkworld hd movies com 226583

College Teen Sex 223710 ryushare uploaded keep2share

College Teen Sex 223710

Girls sex art hd teens videos 5470 ryushare uploaded keep2share

Girls sex art hd teens videos 5470

Free High Quality Sex Movies 2139 ryushare uploaded keep2share

Free High Quality Sex Movies 2139

HD Teen Sex Tube 224188 ryushare uploaded keep2share

HD Teen Sex Tube 224188

Teen Sex Movies Young Porn Tube Vids 225957 ryushare uploaded keep2share

Teen Sex Movies Young Porn Tube Vids 225957

Teen Sex Videos Tube Movies 224560 ryushare uploaded keep2share

Teen Sex Videos Tube Movies 224560

www hd teen girl sex videos com 226154 ryushare uploaded keep2share

www hd teen girl sex videos com 226154

Hardcore Sex Hub 225234 ryushare uploaded keep2share

Hardcore Sex Hub 225234

Susan Ayn ryushare uploaded keep2share

Susan Ayn

Young XXX Tube Videos 223682 ryushare uploaded keep2share

Young XXX Tube Videos 223682

Teen Porn XXX Tube 1144 ryushare uploaded keep2share

Teen Porn XXX Tube 1144

Teen Sex Movies 225608 ryushare uploaded keep2share

Teen Sex Movies 225608

Uploaded net porn XXX 225961 ryushare uploaded keep2share

Uploaded net porn XXX 225961

Wow Porn Movies download) 224242 ryushare uploaded keep2share

Wow Porn Movies download) 224242

HQ Sex Movies Download 1132 ryushare uploaded keep2share

HQ Sex Movies Download 1132

Report broken links / Post a comment

You must be logged in to post a comment.



General
Complete name : D:Beata Undine - cumshot compilation.mp4
Format : MPEG-4
Format profile : Base Media
Codec ID : isom
File size : 268 MiB
Duration : 8mn 46s
Overall bit rate : 4 264 Kbps
Writing application : Lavf52.78.2

Video
ID : 1
Format : MPEG-4 Visual
Format profile : Simple@L1
Format settings, BVOP : No
Format settings, QPel : No
Format settings, GMC : No warppoints
Format settings, Matrix : Default (H.263)
Codec ID : 20
Duration : 8mn 46s
Bit rate : 4 098 Kbps
Width : 1 280 pixels
Height : 720 pixels
Display aspect ratio : 16:9
Frame rate mode : Variable
Frame rate : 28.911 fps
Minimum frame rate : 0.405 fps
Maximum frame rate : 30.000 fps
Color space : YUV
Chroma subsampling : 4:2:0
Bit depth : 8 bits
Scan type : Progressive
Compression mode : Lossy
Bits/(Pixel*Frame) : 0.154
Stream size : 257 MiB (96%)
Writing library : Lavc52.85.1

Audio
ID : 2
Format : AAC
Format/Info : Advanced Audio Codec
Format profile : LC
Codec ID : 40
Duration : 8mn 46s
Bit rate mode : Constant
Bit rate : 165 Kbps
Nominal bit rate : 320 Kbps
Channel count : 2 channels
Channel positions : Front: L R
Sampling rate : 48.0 KHz
Compression mode : Lossy
Stream size : 10.4 MiB (4%)