Beautiful small tits

Very hot brunette fuckedTanned Fucking for money in the street

Posted in HD Porn, Sex Movies, Threesome | 7389 Views |


Rate this girl !!!


(10 raters, 33 scores, average: 3.30 out of 5, 66%)

\r\n\r\nhttp://img101.imagetwist.com/i/05150/pmajjttd7dz6.jpeg\r\n\r\nBeautiful small tits\r\n\r\nLink(812 Mb||42:11||854*480||MP4)



DOWNLOAD

Keep2share.cc - Uploaded.net - Openload.co - Rapidu.net


http://keep2share.cc/file/52e5cf18e4b34
http://ryushare.com/0u8dm6bi0sz4/TNFDYBkn.rar
http://ul.to/s6o3s375


Premium here:
uploaded.net
keep2share.cc
rapidu.net.cc


Teens related to Beautiful small tits


Amateur Teen Sex 224251 ryushare uploaded keep2share

Amateur Teen Sex 224251

HD Porn Videos 4556 ryushare uploaded keep2share

HD Porn Videos 4556

The best Teen sex 2350 ryushare uploaded keep2share

The best Teen sex 2350

teen porno sites xxx ryushare uploaded keep2share

teen porno sites xxx

8 Teen XXX – Teen Sex 224622 ryushare uploaded keep2share

8 Teen XXX – Teen Sex 224622

18 Years Old Girl – Episode 279 ryushare uploaded keep2share

18 Years Old Girl – Episode 279

www young sex perattes mp4 226746 ryushare uploaded keep2share

www young sex perattes mp4 226746

[Girlfriends.XxX] Zena Little, Victoria Puppy ryushare uploaded keep2share

[Girlfriends.XxX] Zena Little, Victoria Puppy

gina devine seks 226666 ryushare uploaded keep2share

gina devine seks 226666

antartika sex hd ryushare uploaded keep2share

antartika sex hd

ClubSeventeen.com SiteRip – Part 2 ryushare uploaded keep2share

ClubSeventeen.com SiteRip – Part 2

b f sex hot movie download ryushare uploaded keep2share

b f sex hot movie download

hd vergin porn star image 226196 ryushare uploaded keep2share

hd vergin porn star image 226196

www world sex hd downlod com ryushare uploaded keep2share

www world sex hd downlod com

Sweet Teen Porn – Young Porn Videos 224912 ryushare uploaded keep2share

Sweet Teen Porn – Young Porn Videos 224912

LegalPorno.com] Rebecca Black takes 3 cocks in ryushare uploaded keep2share

LegalPorno.com] Rebecca Black takes 3 cocks in

Wow girls hd porn teens 225604 ryushare uploaded keep2share

Wow girls hd porn teens 225604

18 years girl xxx sex videos) 2758 ryushare uploaded keep2share

18 years girl xxx sex videos) 2758

21Naturals.com Ivana Sugar – Urges ryushare uploaded keep2share

21Naturals.com Ivana Sugar – Urges

www sexhdmovus com ryushare uploaded keep2share

www sexhdmovus com

TrickyMasseur.com Avina ryushare uploaded keep2share

TrickyMasseur.com Avina

K Daniela (Minimalist) 2014, Handjob, Blondes, 1080p ryushare uploaded keep2share

K Daniela (Minimalist) 2014, Handjob, Blondes, 1080p

YoungCourtesans.com Shakti – Special Sex Arrangement ryushare uploaded keep2share

YoungCourtesans.com Shakti – Special Sex Arrangement

Uploaded net porn XXX 225809 ryushare uploaded keep2share

Uploaded net porn XXX 225809

HD Teen Sex Tube 224831 ryushare uploaded keep2share

HD Teen Sex Tube 224831

Delectable Daydreams (1080p) ryushare uploaded keep2share

Delectable Daydreams (1080p)

Fucking with young athlete ryushare uploaded keep2share

Fucking with young athlete

Free Teen Porn Videos at Teen Sex Tube XXX 225611 ryushare uploaded keep2share

Free Teen Porn Videos at Teen Sex Tube XXX 225611

lwww xxxx sex ryushare uploaded keep2share

lwww xxxx sex

xxxxxxxxxxxxx baf hf 226462 ryushare uploaded keep2share

xxxxxxxxxxxxx baf hf 226462

Good Teen Tube Sexy Young Naked Girls Movies 1383 ryushare uploaded keep2share

Good Teen Tube Sexy Young Naked Girls Movies 1383

Young Sex Movies 225619 ryushare uploaded keep2share

Young Sex Movies 225619

Teen porn xxx 224460 ryushare uploaded keep2share

Teen porn xxx 224460

HQ Sex Movies Download 4182 ryushare uploaded keep2share

HQ Sex Movies Download 4182

Stevie Shae – Fuck It Like You Own It ryushare uploaded keep2share

Stevie Shae – Fuck It Like You Own It

Report broken links / Post a comment

You must be logged in to post a comment.



General\r\nComplete name : D:Beautiful small titsTNFDYBknTNFDYBkn.mp4\r\nFormat : MPEG-4\r\nFormat profile : Base Media / Version 2\r\nCodec ID : mp42\r\nFile size : 812 MiB\r\nDuration : 42mn 11s\r\nOverall bit rate mode : Variable\r\nOverall bit rate : 2 689 Kbps\r\nEncoded date : UTC 2014-01-07 06:32:42\r\nTagged date : UTC 2014-01-07 06:32:42\r\nWriting library : Apple QuickTime\r\n\r\nVideo\r\nID : 1\r\nFormat : AVC\r\nFormat/Info : Advanced Video Codec\r\nFormat profile : Baseline@L3.1\r\nFormat settings, CABAC : No\r\nFormat settings, ReFrames : 2 frames\r\nCodec ID : avc1\r\nCodec ID/Info : Advanced Video Coding\r\nDuration : 42mn 11s\r\nSource duration : 42mn 11s\r\nBit rate : 2 559 Kbps\r\nWidth : 852 pixels\r\nHeight : 480 pixels\r\nDisplay aspect ratio : 16:9\r\nFrame rate mode : Constant\r\nFrame rate : 29.970 fps\r\nStandard : NTSC\r\nColor space : YUV\r\nChroma subsampling : 4:2:0\r\nBit depth : 8 bits\r\nScan type : Progressive\r\nBits/(Pixel*Frame) : 0.209\r\nStream size : 772 MiB (95%)\r\nSource stream size : 772 MiB (95%)\r\nLanguage : English\r\nEncoded date : UTC 2014-01-07 06:32:42\r\nTagged date : UTC 2014-01-07 06:32:42\r\nmdhd_Duration : 2531730\r\n\r\nAudio\r\nID : 2\r\nFormat : AAC\r\nFormat/Info : Advanced Audio Codec\r\nFormat profile : LC\r\nCodec ID : 40\r\nDuration : 42mn 11s\r\nBit rate mode : Variable\r\nBit rate : 128 Kbps\r\nMaximum bit rate : 136 Kbps\r\nChannel(s) : 2 channels\r\nChannel positions : Front: L R\r\nSampling rate : 48.0 KHz\r\nCompression mode : Lossy\r\nStream size : 38.6 MiB (5%)\r\nLanguage : English\r\nEncoded date : UTC 2014-01-07 06:32:42\r\nTagged date : UTC 2014-01-07 06:32:42\r\n\r\n