Big tits blonde with pierced nipples

Teen acrobat sexVery hot brunette fucked

Posted in Amateur, HD Porn, Sex Movies, Teen | 8022 Views |


Rate this girl !!!


(23 raters, 81 scores, average: 3.52 out of 5, 70.43%)

\r\n\r\nhttp://img101.imagetwist.com/i/05150/0lywuuy1hpbg.jpeg\r\n\r\n Link(579 Mb||19:44||1280*720||MP4) \r\n\r\nBig tits blonde with pierced nipples



DOWNLOAD

Keep2share.cc - Uploaded.net - Openload.co - Rapidu.net


http://keep2share.cc/file/52e5d1a5210da
http://ryushare.com/vdu0gbccq3je/NBFMSNfy.rar
http://ul.to/tmwyeez4


Premium here:
uploaded.net
keep2share.cc
rapidu.net.cc

Teens related to Big tits blonde with pierced nipples


Katarinka – Russian Teen – Pack 45 clips ryushare uploaded keep2share

Katarinka – Russian Teen – Pack 45 clips

Real Bushy Beavers 18 – Timea Bella ryushare uploaded keep2share

Real Bushy Beavers 18 – Timea Bella

High Definition Movies on HD 224755 ryushare uploaded keep2share

High Definition Movies on HD 224755

HD Teens Sex Tube Videos XxX 225345 ryushare uploaded keep2share

HD Teens Sex Tube Videos XxX 225345

Sandy Sweet Massage ryushare uploaded keep2share

Sandy Sweet Massage

Teen xxx sex hd 224342 ryushare uploaded keep2share

Teen xxx sex hd 224342

Hot Teen Sex 224463 ryushare uploaded keep2share

Hot Teen Sex 224463

www 3x saxy praan video com ryushare uploaded keep2share

www 3x saxy praan video com

www sexhd-yesxxx com 226556 ryushare uploaded keep2share

www sexhd-yesxxx com 226556

Free High Quality Sex Movies 225595 ryushare uploaded keep2share

Free High Quality Sex Movies 225595

Free High Quality Sex Movies 225750 ryushare uploaded keep2share

Free High Quality Sex Movies 225750

Porn massage young brunette ryushare uploaded keep2share

Porn massage young brunette

free sex tubes direct download 226472 ryushare uploaded keep2share

free sex tubes direct download 226472

HD porn teen downloads 2715 ryushare uploaded keep2share

HD porn teen downloads 2715

RealExGirlfriends.com Megan Rain – Brunette Teen ryushare uploaded keep2share

RealExGirlfriends.com Megan Rain – Brunette Teen

klixen cipriana and cindy 226252 ryushare uploaded keep2share

klixen cipriana and cindy 226252

Young teens tube hot girls free porn video 2828 ryushare uploaded keep2share

Young teens tube hot girls free porn video 2828

Hardcore Sex Hub 224214 ryushare uploaded keep2share

Hardcore Sex Hub 224214

baby hd mp4 deflortioan sex 226670 ryushare uploaded keep2share

baby hd mp4 deflortioan sex 226670

free download sovjetmassage com 226506 ryushare uploaded keep2share

free download sovjetmassage com 226506

18yearporn hd 226684 ryushare uploaded keep2share

18yearporn hd 226684

HD Teen Sex Tube 2364 ryushare uploaded keep2share

HD Teen Sex Tube 2364

fullhdsexvideo ryushare uploaded keep2share

fullhdsexvideo

Young XXX Tube Videos 3931 ryushare uploaded keep2share

Young XXX Tube Videos 3931

www virgin sex hd porn videos com ryushare uploaded keep2share

www virgin sex hd porn videos com

Free High Quality Sex Movies 3862 ryushare uploaded keep2share

Free High Quality Sex Movies 3862

Xxxvideosdownload less mb ryushare uploaded keep2share

Xxxvideosdownload less mb

Hardcore Sex Hub 1963 ryushare uploaded keep2share

Hardcore Sex Hub 1963

18xGirls Fucked Virgin teen ryushare uploaded keep2share

18xGirls Fucked Virgin teen

Sandy Sweet – To Have And To Fuck ryushare uploaded keep2share

Sandy Sweet – To Have And To Fuck

Porn HD Sex HD Teen Sex 2573 ryushare uploaded keep2share

Porn HD Sex HD Teen Sex 2573

Nude Teens fucking hard 3040 ryushare uploaded keep2share

Nude Teens fucking hard 3040

College Teen Sex 224407 ryushare uploaded keep2share

College Teen Sex 224407

XXX young porn sex 3489 ryushare uploaded keep2share

XXX young porn sex 3489

HD Porn Videos 5360 ryushare uploaded keep2share

HD Porn Videos 5360

Report broken links / Post a comment

You must be logged in to post a comment.



General\r\nComplete name : D:Big tits blonde with pierced nipplesNBFMSNfyNBFMSNfy.mp4\r\nFormat : MPEG-4\r\nFormat profile : Base Media\r\nCodec ID : isom\r\nFile size : 579 MiB\r\nDuration : 19mn 44s\r\nOverall bit rate mode : Variable\r\nOverall bit rate : 4 102 Kbps\r\nWriting application : Lavf55.16.102\r\n\r\nVideo\r\nID : 1\r\nFormat : AVC\r\nFormat/Info : Advanced Video Codec\r\nFormat profile : Main@L3.1\r\nFormat settings, CABAC : Yes\r\nFormat settings, ReFrames : 4 frames\r\nCodec ID : avc1\r\nCodec ID/Info : Advanced Video Coding\r\nDuration : 19mn 44s\r\nBit rate : 3 984 Kbps\r\nWidth : 1 280 pixels\r\nHeight : 720 pixels\r\nDisplay aspect ratio : 16:9\r\nFrame rate mode : Constant\r\nFrame rate : 23.976 fps\r\nColor space : YUV\r\nChroma subsampling : 4:2:0\r\nBit depth : 8 bits\r\nScan type : Progressive\r\nBits/(Pixel*Frame) : 0.180\r\nStream size : 563 MiB (97%)\r\nWriting library : x264 core 123 r2189 35cf912\r\nEncoding settings : cabac=1 / ref=2 / deblock=1:-1:-1 / analyse=0x1:0x111 / me=umh / subme=8 / psy=1 / psy_rd=1.00:0.15 / mixed_ref=1 / me_range=16 / chroma_me=1 / trellis=1 / 8x8dct=0 / cqm=0 / deadzone=21,11 / fast_pskip=1 / chroma_qp_offset=-3 / threads=10 / sliced_threads=0 / nr=0 / decimate=1 / interlaced=0 / bluray_compat=0 / constrained_intra=0 / bframes=3 / b_pyramid=2 / b_adapt=2 / b_bias=0 / direct=3 / weightb=1 / open_gop=0 / weightp=0 / keyint=250 / keyint_min=23 / scenecut=40 / intra_refresh=0 / rc_lookahead=50 / rc=crf / mbtree=1 / crf=17.0 / qcomp=0.60 / qpmin=0 / qpmax=69 / qpstep=4 / ip_ratio=1.40 / aq=1:1.00\r\nLanguage : English\r\n\r\nAudio\r\nID : 2\r\nFormat : AAC\r\nFormat/Info : Advanced Audio Codec\r\nFormat profile : LC\r\nCodec ID : 40\r\nDuration : 19mn 44s\r\nDuration_LastFrame : -16ms\r\nBit rate mode : Variable\r\nBit rate : 111 Kbps\r\nMaximum bit rate : 196 Kbps\r\nChannel(s) : 2 channels\r\nChannel positions : Front: L R\r\nSampling rate : 44.1 KHz\r\nCompression mode : Lossy\r\nStream size : 15.7 MiB (3%)\r\nLanguage : English\r\n\r\n