Big Tits Teen HD

Beautiful brunette teen fucking from behind HdHot Japanese

Posted in Amateur, HD Porn, Sex Movies, Teen | 20317 Views |


Rate this girl !!!




\r\n\r\n\r\nhp0kpwl300zv\r\n\r\nLink(923 Mb||36:27||1024*576||MP4)



DOWNLOAD

Keep2share.cc - Uploaded.net - Openload.co - Rapidu.net


http://ryushare.com/1e1ab1c4b86b/BGNRSBrk.rar
http://keep2share.cc/file/52d7ac0a2140f
http://ul.to/8n0t3fnh


Premium here:
uploaded.net
keep2share.cc
rapidu.net.cc

Teens related to Big Tits Teen HD


teenseks1819 226156 ryushare uploaded keep2share

teenseks1819 226156

Free Young Porn Videos XXX Teen Porn 4185 ryushare uploaded keep2share

Free Young Porn Videos XXX Teen Porn 4185

Hot brunette – blowjob and fucked ryushare uploaded keep2share

Hot brunette – blowjob and fucked

Teen Sex Movies 3831 ryushare uploaded keep2share

Teen Sex Movies 3831

Tube xxx 224380 ryushare uploaded keep2share

Tube xxx 224380

[Spizoo.com]  (Romi Rain Hires A Gigolo / 01.12.2016) ryushare uploaded keep2share

[Spizoo.com] (Romi Rain Hires A Gigolo / 01.12.2016)

HQ Sex Movies Download 224642 ryushare uploaded keep2share

HQ Sex Movies Download 224642

iglish porn sexi 226443 ryushare uploaded keep2share

iglish porn sexi 226443

Wow porn hd downloads 224563 ryushare uploaded keep2share

Wow porn hd downloads 224563

Girls sex art hd teens videos 225709 ryushare uploaded keep2share

Girls sex art hd teens videos 225709

sex videos with mkv ryushare uploaded keep2share

sex videos with mkv

download hot pussy xxx HD video ryushare uploaded keep2share

download hot pussy xxx HD video

www hd xvideos hardcore teeny girl ryushare uploaded keep2share

www hd xvideos hardcore teeny girl

Argentina loves showing off her nice big boobs ryushare uploaded keep2share

Argentina loves showing off her nice big boobs

Free High Quality Sex Movies 2128 ryushare uploaded keep2share

Free High Quality Sex Movies 2128

Two Boys & One Girl – X-Art ryushare uploaded keep2share

Two Boys & One Girl – X-Art

Janice Griffith – Fucking Her Right ryushare uploaded keep2share

Janice Griffith – Fucking Her Right

Porn HD Sex HD Teen Sex 224857 ryushare uploaded keep2share

Porn HD Sex HD Teen Sex 224857

HD Porn Teen Sex Videos 1629 ryushare uploaded keep2share

HD Porn Teen Sex Videos 1629

Taissia – Take it slow ryushare uploaded keep2share

Taissia – Take it slow

Teen porn movies 2671 ryushare uploaded keep2share

Teen porn movies 2671

www8ten sex xxx com ryushare uploaded keep2share

www8ten sex xxx com

HD SEX DOWNLOAD 100MB 226490 ryushare uploaded keep2share

HD SEX DOWNLOAD 100MB 226490

Sara Luvv – Dorm Room Invitation ryushare uploaded keep2share

Sara Luvv – Dorm Room Invitation

Free High Quality Sex Movies 225699 ryushare uploaded keep2share

Free High Quality Sex Movies 225699

Amarna Miller & Juan Lucho – Que Es La Pasion ryushare uploaded keep2share

Amarna Miller & Juan Lucho – Que Es La Pasion

Hd quality – Teen sex video 224703 ryushare uploaded keep2share

Hd quality – Teen sex video 224703

Teenies Videos – Teen Porn, Teen Sex, XXX Free Videos 4444 ryushare uploaded keep2share

Teenies Videos – Teen Porn, Teen Sex, XXX Free Videos 4444

Porn party teen girls 224921 ryushare uploaded keep2share

Porn party teen girls 224921

HQ Sex Movies Download 1982 ryushare uploaded keep2share

HQ Sex Movies Download 1982

Lena, Vita and Olga: Party with a stripper ryushare uploaded keep2share

Lena, Vita and Olga: Party with a stripper

HD Porn Video 1358 ryushare uploaded keep2share

HD Porn Video 1358

Hot Teen Sex HD videos 224673 ryushare uploaded keep2share

Hot Teen Sex HD videos 224673

video9 inx ryushare uploaded keep2share

video9 inx

Porno movies young teens lesbian 5412 ryushare uploaded keep2share

Porno movies young teens lesbian 5412

Report broken links / Post a comment

You must be logged in to post a comment.



General\r\nComplete name : D:JBGNRSBrk.mp4\r\nFormat : MPEG-4\r\nFormat profile : Base Media / Version 2\r\nCodec ID : mp42\r\nFile size : 923 MiB\r\nDuration : 36mn 27s\r\nOverall bit rate mode : Variable\r\nOverall bit rate : 3 538 Kbps\r\nEncoded date : UTC 2014-01-08 19:19:37\r\nTagged date : UTC 2014-01-08 19:19:37\r\nWriting library : Apple QuickTime\r\n\r\nVideo\r\nID : 1\r\nFormat : AVC\r\nFormat/Info : Advanced Video Codec\r\nFormat profile : Main@L3.1\r\nFormat settings, CABAC : No\r\nFormat settings, ReFrames : 6 frames\r\nCodec ID : avc1\r\nCodec ID/Info : Advanced Video Coding\r\nDuration : 36mn 27s\r\nSource duration : 36mn 27s\r\nBit rate mode : Variable\r\nBit rate : 3 357 Kbps\r\nMaximum bit rate : 3 500 Kbps\r\nWidth : 1 024 pixels\r\nHeight : 576 pixels\r\nDisplay aspect ratio : 16:9\r\nFrame rate mode : Constant\r\nFrame rate : 29.970 fps\r\nStandard : Component\r\nColor space : YUV\r\nChroma subsampling : 4:2:0\r\nBit depth : 8 bits\r\nScan type : Progressive\r\nBits/(Pixel*Frame) : 0.190\r\nStream size : 876 MiB (95%)\r\nSource stream size : 913 MiB (99%)\r\nEncoded date : UTC 2014-01-08 19:19:37\r\nTagged date : UTC 2014-01-08 15:23:17\r\n\r\nAudio\r\nID : 2\r\nFormat : AAC\r\nFormat/Info : Advanced Audio Codec\r\nFormat profile : LC\r\nCodec ID : 40\r\nDuration : 36mn 27s\r\nBit rate mode : Variable\r\nBit rate : 32.0 Kbps\r\nMaximum bit rate : 35.4 Kbps\r\nChannel count : 1 channel\r\nChannel positions : Front: C\r\nSampling rate : 32.0 KHz\r\nCompression mode : Lossy\r\nStream size : 8.35 MiB (1%)\r\nEncoded date : UTC 2014-01-08 19:19:37\r\nTagged date : UTC 2014-01-08 15:23:17\r\n\r\n