Cadence – Sex Massage

Massage girlYours Forever - Lisa

Posted in Amateur, HD Porn, Sex Movies, Teen | 7577 Views |


Rate this girl !!!


(7 raters, 12 scores, average: 1.71 out of 5, 34.29%)

[MassageGirls18.com] Cadence [2014, All Sex, Massage, 1080psch

\r\n \r\n\r\npic\r\n\r\nName of the actress: Cadence\r\nSubsite and site: MassageGirls18.com\r\nProduction year: 2014\r\nGenre: All Sex, Massage\r\nDuration: 00:27:14\r\nHD Video Type: 1080p\r\nVideo: MPEG4 Video (H264) 1920×1080 29.97fps 9684kbps\r\nAudio: AAC 48000Hz stereo 317kbps\r\n\r\n



DOWNLOAD

Keep2share.cc - Uploaded.net - Openload.co - Rapidu.net


http://k2s.cc/file/c3654172477d1/yp.mg181407274.mp4
http://ul.to/fg6qf4n8/yp.mg181407274.mp4



Premium here:
uploaded.net
keep2share.cc
rapidu.net.cc

Incoming search terms:

  • art of sexmassagehd
  • massagehd
  • massgxxx


Teens related to Cadence – Sex Massage


www xxxsexncon ryushare uploaded keep2share

www xxxsexncon

Young Sex Movies 2737 ryushare uploaded keep2share

Young Sex Movies 2737

Hd quality – Teen sex video 224703 ryushare uploaded keep2share

Hd quality – Teen sex video 224703

Hot Teen Sex HD videos 224322 ryushare uploaded keep2share

Hot Teen Sex HD videos 224322

sex vedios yang grls end boys ryushare uploaded keep2share

sex vedios yang grls end boys

Hd young videos 225366 ryushare uploaded keep2share

Hd young videos 225366

hard fuck hd image download 226631 ryushare uploaded keep2share

hard fuck hd image download 226631

Sex Teens porn movies 2846 ryushare uploaded keep2share

Sex Teens porn movies 2846

Good Teen Tube Sexy Young Naked Girls Movies 225497 ryushare uploaded keep2share

Good Teen Tube Sexy Young Naked Girls Movies 225497

Girls sex art hd teens videos 5470 ryushare uploaded keep2share

Girls sex art hd teens videos 5470

Young Virgin Pussy Teen Fuck Tube 225715 ryushare uploaded keep2share

Young Virgin Pussy Teen Fuck Tube 225715

Young Sex Movies 3635 ryushare uploaded keep2share

Young Sex Movies 3635

Small girls and boys porn 2683 ryushare uploaded keep2share

Small girls and boys porn 2683

xvideohqdownlod 226407 ryushare uploaded keep2share

xvideohqdownlod 226407

Brunette Shelia Gets a Big Load Of Cum ryushare uploaded keep2share

Brunette Shelia Gets a Big Load Of Cum

Two Teasing Tongues 9 ryushare uploaded keep2share

Two Teasing Tongues 9

Free Porn Videos Xxx Movies Pussy Porn 225269 ryushare uploaded keep2share

Free Porn Videos Xxx Movies Pussy Porn 225269

8 Teen XXX – Teen Sex 2117 ryushare uploaded keep2share

8 Teen XXX – Teen Sex 2117

Teens in Porno young porn videos and free teen sex 225947 ryushare uploaded keep2share

Teens in Porno young porn videos and free teen sex 225947

Watch Teen Sex Videos HD 1246 ryushare uploaded keep2share

Watch Teen Sex Videos HD 1246

hq 18x video com 226250 ryushare uploaded keep2share

hq 18x video com 226250

ww hot sex hdvideo download com ryushare uploaded keep2share

ww hot sex hdvideo download com

Young 720p hd porn 4581 ryushare uploaded keep2share

Young 720p hd porn 4581

Wow porn hd downloads 224274 ryushare uploaded keep2share

Wow porn hd downloads 224274

Hardcore sex videos in the high definition quality 224598 ryushare uploaded keep2share

Hardcore sex videos in the high definition quality 224598

Adult Hardcore XXX Sex Videos 4965 ryushare uploaded keep2share

Adult Hardcore XXX Sex Videos 4965

Hot Teen Sex HD videos 1930 ryushare uploaded keep2share

Hot Teen Sex HD videos 1930

Hd teen party porn pics 226613 ryushare uploaded keep2share

Hd teen party porn pics 226613

Angelica – Good Night Kiss ryushare uploaded keep2share

Angelica – Good Night Kiss

Young xxx 225438 ryushare uploaded keep2share

Young xxx 225438

18yearporn hd 226684 ryushare uploaded keep2share

18yearporn hd 226684

telar with girls sexe video you tube 226766 ryushare uploaded keep2share

telar with girls sexe video you tube 226766

Uploaded net porn 2834 ryushare uploaded keep2share

Uploaded net porn 2834

Sexy hd world com 226166 ryushare uploaded keep2share

Sexy hd world com 226166

HD Sex 18- YEX XXX ryushare uploaded keep2share

HD Sex 18- YEX XXX

Report broken links / Post a comment

You must be logged in to post a comment.



General\r\nComplete name : D:hd teens porn download free online[MassageGirls18.com] Cadence [2014, All Sex, Massage, 1080psch.mp4\r\nFormat : MPEG-4\r\nFormat profile : Base Media / Version 2\r\nCodec ID : mp42\r\nFile size : 1.92 GiB\r\nDuration : 27mn 13s\r\nOverall bit rate : 10.1 Mbps\r\nEncoded date : UTC 2013-07-11 22:17:41\r\nTagged date : UTC 2013-07-11 22:17:41\r\n\r\nVideo\r\nID : 2\r\nFormat : AVC\r\nFormat/Info : Advanced Video Codec\r\nFormat profile : Main@L4.0\r\nFormat settings, CABAC : Yes\r\nFormat settings, ReFrames : 2 frames\r\nFormat settings, GOP : M=2, N=15\r\nCodec ID : avc1\r\nCodec ID/Info : Advanced Video Coding\r\nDuration : 27mn 13s\r\nBit rate : 9 900 Kbps\r\nWidth : 1 920 pixels\r\nHeight : 1 080 pixels\r\nDisplay aspect ratio : 16:9\r\nFrame rate mode : Constant\r\nFrame rate : 29.970 fps\r\nStandard : NTSC\r\nColor space : YUV\r\nChroma subsampling : 4:2:0\r\nBit depth : 8 bits\r\nScan type : Progressive\r\nBits/(Pixel*Frame) : 0.159\r\nStream size : 1.88 GiB (98%)\r\nLanguage : English\r\nEncoded date : UTC 2013-07-11 22:17:41\r\nTagged date : UTC 2013-07-11 22:17:41\r\n\r\nAudio\r\nID : 1\r\nFormat : AAC\r\nFormat/Info : Advanced Audio Codec\r\nFormat profile : LC\r\nCodec ID : 40\r\nDuration : 27mn 13s\r\nBit rate mode : Constant\r\nBit rate : 192 Kbps\r\nChannel(s) : channel0\r\nChannel(s)_Original : 2 channels\r\nChannel positions : Front: L R\r\nSampling rate : 48.0 KHz\r\nCompression mode : Lossy\r\nStream size : 37.4 MiB (2%)\r\nLanguage : English\r\nEncoded date : UTC 2013-07-11 22:17:41\r\nTagged date : UTC 2013-07-11 22:17:41\r\n\r\n