Casting Vikki 1080p

Babes Giselle Leon 1080pGrace Hot Teen

Posted in Amateur, HD Porn, Sex Movies | 11205 Views |


Rate this girl !!!




Casting Vikki 1080p\r\n\r\nCasting Vikki 1080p\r\n\r\n\r\nFile: Casting.E241.Vikki.1080p.mov\r\nSize: 1807338460 bytes (1.68 GiB), duration: 00:37:39, avg.bitrate: 6400 kb/s\r\nAudio: aac, 44100 Hz, 2 channels, s16, 125 kb/s (eng)\r\nVideo: h264, yuv420p, 1920×1080, 6267 kb/s, 25.00 fps(r) (eng)\r\n\r\n\r\n\r\n\r\n



DOWNLOAD

Keep2share.cc - Uploaded.net - Openload.co - Rapidu.net


http://ryushare.com/264a2b90a46c/Cast1.E241.part1.rar
http://ryushare.com/264a2b90a46a/Cast1.E241.part2.rar
http://keep2share.cc/file/5277c122b9527
http://keep2share.cc/file/5277c0ee1c9fb
http://ul.to/wcph2fwm
http://ul.to/rt3g3g85


Premium here:
uploaded.net
keep2share.cc
rapidu.net.cc

Teens related to Casting Vikki 1080p


Teen Sex Videos Tube Movies 1759 ryushare uploaded keep2share

Teen Sex Videos Tube Movies 1759

First time Sexual Films 18 sex xxx 223799 ryushare uploaded keep2share

First time Sexual Films 18 sex xxx 223799

farst taim sex downlod ryushare uploaded keep2share

farst taim sex downlod

Teen Sex Porn Videos Free Nude Teens 2202 ryushare uploaded keep2share

Teen Sex Porn Videos Free Nude Teens 2202

Amateur Teen Sex 5266 ryushare uploaded keep2share

Amateur Teen Sex 5266

sex full clarety videos 226664 ryushare uploaded keep2share

sex full clarety videos 226664

Uploaded net porn 3849 ryushare uploaded keep2share

Uploaded net porn 3849

www foto 8 teenxxx 226674 ryushare uploaded keep2share

www foto 8 teenxxx 226674

Porn teen hd downloads 225513 ryushare uploaded keep2share

Porn teen hd downloads 225513

www tens sex com 226725 ryushare uploaded keep2share

www tens sex com 226725

Porn HD Sex HD Teen Sex 2573 ryushare uploaded keep2share

Porn HD Sex HD Teen Sex 2573

Kiara Lord – Rock my world ryushare uploaded keep2share

Kiara Lord – Rock my world

Small girls and boys porn 4639 ryushare uploaded keep2share

Small girls and boys porn 4639

Wow Girls Porn Clips download 224301 ryushare uploaded keep2share

Wow Girls Porn Clips download 224301

HD Porn Videos 1376 ryushare uploaded keep2share

HD Porn Videos 1376

real virgin Teent pussy image Hd com ryushare uploaded keep2share

real virgin Teent pussy image Hd com

Teenies Videos – Teen Porn, Teen Sex, XXX Free Videos 224066 ryushare uploaded keep2share

Teenies Videos – Teen Porn, Teen Sex, XXX Free Videos 224066

X-Angels.com Lida ryushare uploaded keep2share

X-Angels.com Lida

X-Art – Addison – No Turning Back ryushare uploaded keep2share

X-Art – Addison – No Turning Back

girls high quality sex videos download 226282 ryushare uploaded keep2share

girls high quality sex videos download 226282

www hdsexse vidio 226293 ryushare uploaded keep2share

www hdsexse vidio 226293

Free Young Porn Videos XXX Teen Porn 2569 ryushare uploaded keep2share

Free Young Porn Videos XXX Teen Porn 2569

Good Teen Tube Sexy Young Naked Girls Movies 225053 ryushare uploaded keep2share

Good Teen Tube Sexy Young Naked Girls Movies 225053

Sweet Teen Porn – sex in the kitchen ryushare uploaded keep2share

Sweet Teen Porn – sex in the kitchen

www young sex perattes mp4 226746 ryushare uploaded keep2share

www young sex perattes mp4 226746

Angelica, The Red Fox X-Art.com ryushare uploaded keep2share

Angelica, The Red Fox X-Art.com

Hot Teen Sex HD videos 2172 ryushare uploaded keep2share

Hot Teen Sex HD videos 2172

FantasyHD.com – Emily Grey – Teen Thigh Gap ryushare uploaded keep2share

FantasyHD.com – Emily Grey – Teen Thigh Gap

Hd young videos 2754 ryushare uploaded keep2share

Hd young videos 2754

Hd young videos Student Amateur Jimslip 4764 ryushare uploaded keep2share

Hd young videos Student Amateur Jimslip 4764

HD sex movies downloads 2841 ryushare uploaded keep2share

HD sex movies downloads 2841

Young 720p hd porn 3776 ryushare uploaded keep2share

Young 720p hd porn 3776

Teen Sex Movies Young Porn Tube Vids 224709 ryushare uploaded keep2share

Teen Sex Movies Young Porn Tube Vids 224709

Wow porn hd downloads 224645 ryushare uploaded keep2share

Wow porn hd downloads 224645

Teen Sex Videos Tube Movies 225137 ryushare uploaded keep2share

Teen Sex Videos Tube Movies 225137

Report broken links / Post a comment

You must be logged in to post a comment.



General\r\nComplete name : H:HD TEENS PORN RYUSHARE UPLOADED KEEP2SHARECasting.E241.Vikki.1080p.mov\r\nFormat : MPEG-4\r\nFormat profile : QuickTime\r\nCodec ID : qt \r\nFile size : 1.68 GiB\r\nDuration : 37mn 39s\r\nOverall bit rate : 6 398 Kbps\r\nEncoded date : UTC 2013-10-01 09:11:59\r\nTagged date : UTC 2013-10-01 17:12:44\r\nWriting library : Apple QuickTime\r\nMedia/UUID : 132B0367-242C-4EE3-B86C-F9D4A59C1B07\r\n\r\nVideo\r\nID : 1\r\nFormat : AVC\r\nFormat/Info : Advanced Video Codec\r\nFormat profile : Main@L4.0\r\nFormat settings, CABAC : No\r\nFormat settings, ReFrames : 2 frames\r\nCodec ID : avc1\r\nCodec ID/Info : Advanced Video Coding\r\nDuration : 37mn 39s\r\nBit rate : 6 268 Kbps\r\nWidth : 1 888 pixels\r\nOriginal width : 1 920 pixels\r\nHeight : 1 062 pixels\r\nOriginal height : 1 080 pixels\r\nDisplay aspect ratio : 16:9\r\nFrame rate mode : Constant\r\nFrame rate : 25.000 fps\r\nColor space : YUV\r\nChroma subsampling : 4:2:0\r\nBit depth : 8 bits\r\nScan type : Progressive\r\nBits/(Pixel*Frame) : 0.125\r\nStream size : 1.65 GiB (98%)\r\nLanguage : English\r\nEncoded date : UTC 2013-10-01 17:10:10\r\nTagged date : UTC 2013-10-01 17:12:44\r\nColor primaries : BT.709\r\nTransfer characteristics : BT.709\r\nMatrix coefficients : BT.709\r\n\r\nAudio\r\nID : 2\r\nFormat : AAC\r\nFormat/Info : Advanced Audio Codec\r\nFormat profile : LC\r\nCodec ID : 40\r\nDuration : 37mn 39s\r\nSource duration : 37mn 39s\r\nBit rate mode : Constant\r\nBit rate : 128 Kbps\r\nChannel(s) : 2 channels\r\nChannel positions : Front: L R\r\nSampling rate : 44.1 KHz\r\nCompression mode : Lossy\r\nStream size : 33.9 MiB (2%)\r\nSource stream size : 33.9 MiB (2%)\r\nLanguage : English\r\nEncoded date : UTC 2013-10-01 17:10:10\r\nTagged date : UTC 2013-10-01 17:12:44\r\n\r\nOther\r\nID : 3\r\nType : Time code\r\nFormat : QuickTime TC\r\nDuration : 37mn 39s\r\nTime code of first frame : 01:00:00:00\r\nTime code settings : Striped\r\nLanguage : English\r\nEncoded date : UTC 2013-10-01 17:12:44\r\nTagged date : UTC 2013-10-01 17:12:44