ClubSeventeen.com home alone teens 02 06

Beata Undine - cumshot compilationFresh Teen Videos 3763

Posted in HD Porn, Sex Movies, Solo, Teen | 7229 Views |


Rate this girl !!!




ClubSeventeen.com home alone teens 02 06\r\n\r\nvlcsnap-2014-01-05-06h21m06s137\r\n\r\nDownload full siterip:\r\n\r\nClubSeventeen.com FULL SITERIP PART1\r\n\r\nClubSeventeen.com FULL SITERIP PART2\r\n\r\nClubSeventeen.com FULL SITERIP PART3\r\nFormat                         : Windows Media\r\nFile size                      : 348 MiB\r\nDuration                       : 9mn 22s\r\nOverall bit rate               : 5 194 Kbps\r\nMaximum Overall bit rate       : 5 150 Kbps



DOWNLOAD

Keep2share.cc - Uploaded.net - Openload.co - Rapidu.net


http://ryushare.com/kw1vyporvwny/home_alone_teens_02_06_fullcomplete_1.rar
http://ul.to/gi9tecp2
http://turbobit.net/zw87c1bif1r5.html
http://keep2share.cc/file/52c9c4751bfe6


Premium here:
uploaded.net
keep2share.cc
rapidu.net.cc


Tags:

Teens related to ClubSeventeen.com home alone teens 02 06


www dani daniels hd xxx video com 226136 ryushare uploaded keep2share

www dani daniels hd xxx video com 226136

Teen Sex Movies Young Porn Tube Vids 225839 ryushare uploaded keep2share

Teen Sex Movies Young Porn Tube Vids 225839

HD porn uploaded 3712 ryushare uploaded keep2share

HD porn uploaded 3712

Teen 18 Porn XXX Clips Naked 1367 ryushare uploaded keep2share

Teen 18 Porn XXX Clips Naked 1367

Young Sex Movies 2635 ryushare uploaded keep2share

Young Sex Movies 2635

Kathia Nobili, Meg Magic – Low Self-Esteem ryushare uploaded keep2share

Kathia Nobili, Meg Magic – Low Self-Esteem

Anal with beautiful teen ryushare uploaded keep2share

Anal with beautiful teen

Carmen Fox – Fucked by the best client ryushare uploaded keep2share

Carmen Fox – Fucked by the best client

teen 12 porn images 226585 ryushare uploaded keep2share

teen 12 porn images 226585

HD Porn Videos 3003 ryushare uploaded keep2share

HD Porn Videos 3003

faapy x vedios com 226486 ryushare uploaded keep2share

faapy x vedios com 226486

Sexart  – Carla Cox – The last night (Orgy) ryushare uploaded keep2share

Sexart – Carla Cox – The last night (Orgy)

Connie Carter – Slippery Sweet ryushare uploaded keep2share

Connie Carter – Slippery Sweet

sex hd romance 226550 ryushare uploaded keep2share

sex hd romance 226550

antartika poeno sex 226048 ryushare uploaded keep2share

antartika poeno sex 226048

Hardcore Sex Hub 224876 ryushare uploaded keep2share

Hardcore Sex Hub 224876

gina devine seks 226666 ryushare uploaded keep2share

gina devine seks 226666

Sweet Teen Porn – Young Porn Videos 224592 ryushare uploaded keep2share

Sweet Teen Porn – Young Porn Videos 224592

HD Teen Sex Tube 3572 ryushare uploaded keep2share

HD Teen Sex Tube 3572

Hardcore Sex Hub 225296 ryushare uploaded keep2share

Hardcore Sex Hub 225296

wwwten sex hd com 226451 ryushare uploaded keep2share

wwwten sex hd com 226451

Free Porn Videos Xxx Movies Pussy Porn 5225 ryushare uploaded keep2share

Free Porn Videos Xxx Movies Pussy Porn 5225

Kavol Lilien ryushare uploaded keep2share

Kavol Lilien

Wow girls porn teens 2578 ryushare uploaded keep2share

Wow girls porn teens 2578

Adult Hardcore XXX Sex Videos 4052 ryushare uploaded keep2share

Adult Hardcore XXX Sex Videos 4052

www 18 videos lk ryushare uploaded keep2share

www 18 videos lk

www full sex xxx move com ryushare uploaded keep2share

www full sex xxx move com

Wow Porn Movies download) 224417 ryushare uploaded keep2share

Wow Porn Movies download) 224417

hd sexy porn star video ryushare uploaded keep2share

hd sexy porn star video

HD Sex World Videos High Definition Free Porn 5342 ryushare uploaded keep2share

HD Sex World Videos High Definition Free Porn 5342

Young Sex Movies 2411 ryushare uploaded keep2share

Young Sex Movies 2411

High Definition Movies on HD 4166 ryushare uploaded keep2share

High Definition Movies on HD 4166

Porn party teen girls 225342 ryushare uploaded keep2share

Porn party teen girls 225342

HQ Sex Movies Download 5330 ryushare uploaded keep2share

HQ Sex Movies Download 5330

www hd model sex telars hd com 226682 ryushare uploaded keep2share

www hd model sex telars hd com 226682

Report broken links / Post a comment

You must be logged in to post a comment.



General\r\nFormat : Windows Media\r\nFile size : 348 MiB\r\nDuration : 9mn 22s\r\nOverall bit rate : 5 194 Kbps\r\nMaximum Overall bit rate : 5 150 Kbps\r\nEncoded date : UTC 2011-05-07 19:40:56.000\r\n\r\nVideo\r\nID : 1\r\nFormat : VC-1\r\nFormat profile : Main\r\nCodec ID : WMV3\r\nCodec ID/Info : Windows Media Video 9\r\nCodec ID/Hint : WMV3\r\nDescription of the codec : Windows Media Video 328527672 - 2-pass VBR\r\nDuration : 9mn 22s\r\nBit rate : 5 000 Kbps\r\nWidth : 1 280 pixels\r\nHeight : 720 pixels\r\nDisplay aspect ratio : 16:9\r\nFrame rate : 25.000 fps\r\nColor space : YUV\r\nChroma subsampling : 4:2:0\r\nBit depth : 8 bits\r\nScan type : Progressive\r\nCompression mode : Lossy\r\nBits/(Pixel*Frame) : 0.217\r\nStream size : 335 MiB (96%)\r\n\r\nAudio\r\nID : 2\r\nFormat : WMA\r\nFormat version : Version 2\r\nCodec ID : 161\r\nCodec ID/Info : Windows Media Audio\r\nDescription of the codec : Windows Media Audio 9 - 328527672 kbps, 328527672 kHz, stereo CBR\r\nDuration : 9mn 22s\r\nBit rate : 128 Kbps\r\nChannel count : 2 channels\r\nSampling rate : 44.1 KHz\r\nBit depth : 16 bits\r\nStream size : 8.58 MiB (2%)\r\n\r\n