College Teen Sex 1992

HD Sex World Videos High Definition Free Porn 1997College Teen Sex 1987

Posted in HD Porn, Pornstar, Sex Movies, Teen | 26043 Views |


Rate this girl !!!




\r\n\r\n\r\nhttp://img102.imagetwist.com/i/05303/wfmgu4exacts.jpeg\r\n\r\n Link(1.41 Gb||19:49||1920*1080||MP4)



DOWNLOAD

Keep2share.cc - Uploaded.net - Openload.co - Rapidu.net


http://k2s.cc/file/c0fbb30beb387/HDBNDRms.rar
http://uploaded.net/file/ssx2xp1l/HDBNDRms.rar
http://ryushare.com/elgym70hmhqe/HDBNDRms.rar


Premium here:
uploaded.net
keep2share.cc
rapidu.net.cc


Teens related to College Teen Sex 1992


HD Porn Video 1235 ryushare uploaded keep2share

HD Porn Video 1235

Hd quality – Teen sex video 224703 ryushare uploaded keep2share

Hd quality – Teen sex video 224703

Rocco Siffred – Kiara Lord – POV ryushare uploaded keep2share

Rocco Siffred – Kiara Lord – POV

Teen xxx sex hd 223813 ryushare uploaded keep2share

Teen xxx sex hd 223813

Young 720p hd porn 3776 ryushare uploaded keep2share

Young 720p hd porn 3776

Uploaded net porn 2517 ryushare uploaded keep2share

Uploaded net porn 2517

Teen Tits Tube, Young Girls Porn Videos 5028 ryushare uploaded keep2share

Teen Tits Tube, Young Girls Porn Videos 5028

High Definition Movies on HD Teen Porn XXX Tube 1687 ryushare uploaded keep2share

High Definition Movies on HD Teen Porn XXX Tube 1687

Good Teen Tube Sexy Young Naked Girls Movies 4454 ryushare uploaded keep2share

Good Teen Tube Sexy Young Naked Girls Movies 4454

xxxx clips hd ryushare uploaded keep2share

xxxx clips hd

baby hd mp4 deflortioan sex 226670 ryushare uploaded keep2share

baby hd mp4 deflortioan sex 226670

Maria Pie And Nomi – Melting Like Butter ryushare uploaded keep2share

Maria Pie And Nomi – Melting Like Butter

Sasha Foxxx (Sasha’s edging orgasm control) ryushare uploaded keep2share

Sasha Foxxx (Sasha’s edging orgasm control)

Hot Teen Sex HD videos 1930 ryushare uploaded keep2share

Hot Teen Sex HD videos 1930

21Naturals.com Beata Undine – Dreaming ryushare uploaded keep2share

21Naturals.com Beata Undine – Dreaming

Girls do porn in HD 225281 ryushare uploaded keep2share

Girls do porn in HD 225281

Teenage Fuck Clips 225869 ryushare uploaded keep2share

Teenage Fuck Clips 225869

8teen xxx pcHD com ryushare uploaded keep2share

8teen xxx pcHD com

wwwten sex hd com 226451 ryushare uploaded keep2share

wwwten sex hd com 226451

Hot Teen Sex HD videos 1883 ryushare uploaded keep2share

Hot Teen Sex HD videos 1883

KARLIE MONTANA’s Fetish Fantasies ryushare uploaded keep2share

KARLIE MONTANA’s Fetish Fantasies

Tanned teen in pink sofa ryushare uploaded keep2share

Tanned teen in pink sofa

HD Porn Videos 224684 ryushare uploaded keep2share

HD Porn Videos 224684

Sandy Sweet Massage ryushare uploaded keep2share

Sandy Sweet Massage

hi sex movies download in hq 226295 ryushare uploaded keep2share

hi sex movies download in hq 226295

Hd young videos Student Amateur Jimslip 4764 ryushare uploaded keep2share

Hd young videos Student Amateur Jimslip 4764

HQ Sex Movies Download 225044 ryushare uploaded keep2share

HQ Sex Movies Download 225044

HD Teen Sex Tube 2148 ryushare uploaded keep2share

HD Teen Sex Tube 2148

[NuruMassage.com / FantasyMassage.com] Katrina Jade And Kimmy Granger ryushare uploaded keep2share

[NuruMassage.com / FantasyMassage.com] Katrina Jade And Kimmy Granger

Teen porn movies 1460 ryushare uploaded keep2share

Teen porn movies 1460

full hd hardcor shortsex clips ryushare uploaded keep2share

full hd hardcor shortsex clips

Super hot teens fuck swim pool ryushare uploaded keep2share

Super hot teens fuck swim pool

Hot Teen Sex 1726 ryushare uploaded keep2share

Hot Teen Sex 1726

very hot pron 226721 ryushare uploaded keep2share

very hot pron 226721

Movies Young legal porn 225867 ryushare uploaded keep2share

Movies Young legal porn 225867

Report broken links / Post a comment

You must be logged in to post a comment.



General\r\nComplete name : D:\New folder218HDBNDRmsHDBNDRms.mp4\r\nFormat : MPEG-4\r\nFormat profile : Base Media / Version 2\r\nCodec ID : mp42\r\nFile size : 1.41 GiB\r\nDuration : 19mn 49s\r\nOverall bit rate mode : Variable\r\nOverall bit rate : 10.2 Mbps\r\nEncoded date : UTC 2012-12-19 03:55:56\r\nTagged date : UTC 2012-12-19 03:55:56\r\nWriting library : Apple QuickTime\r\n\r\nVideo\r\nID : 1\r\nFormat : AVC\r\nFormat/Info : Advanced Video Codec\r\nFormat profile : High@L4.0\r\nFormat settings, CABAC : No\r\nFormat settings, ReFrames : 3 frames\r\nCodec ID : avc1\r\nCodec ID/Info : Advanced Video Coding\r\nDuration : 19mn 49s\r\nSource duration : 19mn 49s\r\nBit rate mode : Variable\r\nBit rate : 9 594 Kbps\r\nMaximum bit rate : 10.0 Mbps\r\nWidth : 1 920 pixels\r\nHeight : 1 080 pixels\r\nDisplay aspect ratio : 16:9\r\nFrame rate mode : Constant\r\nFrame rate : 29.970 fps\r\nStandard : Component\r\nColor space : YUV\r\nChroma subsampling : 4:2:0\r\nBit depth : 8 bits\r\nScan type : Progressive\r\nBits/(Pixel*Frame) : 0.154\r\nStream size : 1.33 GiB (94%)\r\nSource stream size : 1.39 GiB (98%)\r\nEncoded date : UTC 2012-12-19 03:55:56\r\nTagged date : UTC 2012-12-18 03:56:49\r\n\r\nAudio\r\nID : 2\r\nFormat : AAC\r\nFormat/Info : Advanced Audio Codec\r\nFormat profile : LC\r\nCodec ID : 40\r\nDuration : 19mn 49s\r\nBit rate mode : Variable\r\nBit rate : 192 Kbps\r\nMaximum bit rate : 200 Kbps\r\nChannel(s) : 2 channels\r\nChannel positions : Front: L R\r\nSampling rate : 48.0 KHz\r\nCompression mode : Lossy\r\nStream size : 27.2 MiB (2%)\r\nEncoded date : UTC 2012-12-19 03:55:56\r\nTagged date : UTC 2012-12-18 03:56:49\r\n\r\n