College Teen Sex 2994

HD Sex World Videos High Definition Free Porn 2998Hot Teen Sex 2988

Posted in Amateur, HD Porn, Sex Movies, Teen | 9405 Views |


Rate this girl !!!




\r\n\r\n4.jpeg\r\n\r\nLink(963 Mb||31:45||1280*720||WMV)



DOWNLOAD

Keep2share.cc - Uploaded.net - Openload.co - Rapidu.net


http://k2s.cc/file/47ac52b50e18f/TNSMNdr.wmv
http://ryushare.com/qt3fsevzbt4q/TNSMNdr.wmv
http://ul.to/jhgw64jg/TNSMNdr.wmv


Premium here:
uploaded.net
keep2share.cc
rapidu.net.cc


Teens related to College Teen Sex 2994


TrickyMasseur.com Joanna ryushare uploaded keep2share

TrickyMasseur.com Joanna

College Teen Sex 3556 ryushare uploaded keep2share

College Teen Sex 3556

teensex mp4 hd download 226542 ryushare uploaded keep2share

teensex mp4 hd download 226542

Teen Sex Videos Tube Movies 225847 ryushare uploaded keep2share

Teen Sex Videos Tube Movies 225847

Amateur Teen Sex 5388 ryushare uploaded keep2share

Amateur Teen Sex 5388

Wow Porn Movies download) 225133 ryushare uploaded keep2share

Wow Porn Movies download) 225133

Free High Quality Sex Movies 5278 ryushare uploaded keep2share

Free High Quality Sex Movies 5278

www yes xxx hd downlads 226589 ryushare uploaded keep2share

www yes xxx hd downlads 226589

High Definition Movies on HD Teen Porn XXX Tube 6225 ryushare uploaded keep2share

High Definition Movies on HD Teen Porn XXX Tube 6225

Girls do porn in HD 225969 ryushare uploaded keep2share

Girls do porn in HD 225969

High Definition Movies on HD 224782 ryushare uploaded keep2share

High Definition Movies on HD 224782

8 Teen XXX – Teen Sex 224358 ryushare uploaded keep2share

8 Teen XXX – Teen Sex 224358

Naughty Temptress – Capri Anderson ryushare uploaded keep2share

Naughty Temptress – Capri Anderson

Young teens tube hot girls free porn video 2828 ryushare uploaded keep2share

Young teens tube hot girls free porn video 2828

free hd teen porn clips ryushare uploaded keep2share

free hd teen porn clips

Two Boys & One Girl – X-Art ryushare uploaded keep2share

Two Boys & One Girl – X-Art

Young legal porn clips 4754 ryushare uploaded keep2share

Young legal porn clips 4754

Girls do porn in HD 5406 ryushare uploaded keep2share

Girls do porn in HD 5406

Porno movies young teens lesbian 5245 ryushare uploaded keep2share

Porno movies young teens lesbian 5245

xxx videos hd 1280p com ryushare uploaded keep2share

xxx videos hd 1280p com

www xxxnx hd porn video ryushare uploaded keep2share

www xxxnx hd porn video

www free x video hq hd com 226236 ryushare uploaded keep2share

www free x video hq hd com 226236

www hdsexy xxx 226508 ryushare uploaded keep2share

www hdsexy xxx 226508

hd hq sexy vefeos ryushare uploaded keep2share

hd hq sexy vefeos

1By-Day.com Danika – Undercover Banana ryushare uploaded keep2share

1By-Day.com Danika – Undercover Banana

JimSlip – Tassia – Nympho in Chief ryushare uploaded keep2share

JimSlip – Tassia – Nympho in Chief

Naomi Nevena ryushare uploaded keep2share

Naomi Nevena

HD Teen Sex Tube 224188 ryushare uploaded keep2share

HD Teen Sex Tube 224188

Teen Sex Videos Tube Movies 1466 ryushare uploaded keep2share

Teen Sex Videos Tube Movies 1466

nude hot 226040 ryushare uploaded keep2share

nude hot 226040

VIOLA BAILEY’S and BEATA UNDINE – HARD – BED + 1 ryushare uploaded keep2share

VIOLA BAILEY’S and BEATA UNDINE – HARD – BED + 1

[PublicAgent.com] Belle Claire – The Best Tits I’ve Ever Paid For ryushare uploaded keep2share

[PublicAgent.com] Belle Claire – The Best Tits I’ve Ever Paid For

Tube Young Sex 4191 ryushare uploaded keep2share

Tube Young Sex 4191

HD Teen Sex Tube 1451 ryushare uploaded keep2share

HD Teen Sex Tube 1451

anysex free video com ryushare uploaded keep2share

anysex free video com

Report broken links / Post a comment

You must be logged in to post a comment.



General\r\nComplete name : D:HD Porn Teens Sex movies tube online downloadTNSMNdr.wmv\r\nFormat : Windows Media\r\nFile size : 963 MiB\r\nDuration : 31mn 45s\r\nOverall bit rate mode : Constant\r\nOverall bit rate : 4 242 Kbps\r\nMaximum Overall bit rate : 4 258 Kbps\r\nPerformer : Royal-Cash.com\r\nEncoded date : UTC 2011-10-27 13:39:49.386\r\nCopyright : Royal-Cash.com\r\n\r\nVideo\r\nID : 2\r\nFormat : VC-1\r\nFormat profile : MP@HL\r\nCodec ID : WMV3\r\nCodec ID/Info : Windows Media Video 9\r\nCodec ID/Hint : WMV3\r\nDescription of the codec : Windows Media Video 9 - Professional\r\nDuration : 31mn 45s\r\nBit rate mode : Constant\r\nBit rate : 4 096 Kbps\r\nWidth : 1 280 pixels\r\nHeight : 720 pixels\r\nDisplay aspect ratio : 16:9\r\nFrame rate : 25.000 fps\r\nColor space : YUV\r\nChroma subsampling : 4:2:0\r\nBit depth : 8 bits\r\nScan type : Progressive\r\nCompression mode : Lossy\r\nBits/(Pixel*Frame) : 0.178\r\nStream size : 930 MiB (97%)\r\nLanguage : English (US)\r\nNumberOfFrames : 47624\r\n\r\nAudio\r\nID : 1\r\nFormat : WMA\r\nFormat version : Version 2\r\nCodec ID : 161\r\nCodec ID/Info : Windows Media Audio\r\nDescription of the codec : Windows Media Audio 9.1 - 128 kbps, 44 kHz, stereo 1-pass CBR\r\nDuration : 31mn 45s\r\nBit rate mode : Constant\r\nBit rate : 128 Kbps\r\nChannel(s) : 2 channels\r\nSampling rate : 44.1 KHz\r\nBit depth : 16 bits\r\nStream size : 29.1 MiB (3%)\r\nLanguage : English (US)\r\nNumberOfFrames : 5131\r\n\r\n