College Teen Sex 3556

Teens 1080p hd porn 3561HD Teens Sex Tube Videos XxX 3546

Posted in Amateur, HD Porn, Sex Movies, Teen | 6363 Views |


Rate this girl !!!




\r\n\r\nSize: 424 MB | Duration: 00:27:40 | Quality: 1280×720 | Format: Wmv



DOWNLOAD

Keep2share.cc - Uploaded.net - Openload.co - Rapidu.net


http://fileom.com/yx3c5kz9b3t2/L.ex.i_D.ia.mo.nd.wmv.html
http://ul.to/5dtjk7r2/L.ex.i_D.ia.mo.nd.wmv
http://www.easybytez.com/wsghyhgf4844
http://k2s.cc/file/b7ebdca97ff49/L.ex.i_D.ia.mo.nd.wmv
http://ryushare.com/bdqos9pilh51/L.ex.i_D.ia.mo.nd.wmv


Premium here:
uploaded.net
keep2share.cc
rapidu.net.cc


Teens related to College Teen Sex 3556


HD Porn Video 2499 ryushare uploaded keep2share

HD Porn Video 2499

Sweet Teen Porn – Young Porn Videos 224820 ryushare uploaded keep2share

Sweet Teen Porn – Young Porn Videos 224820

Dakota James & Hannah Hartman – Blindfold My Baby ryushare uploaded keep2share

Dakota James & Hannah Hartman – Blindfold My Baby

Young XXX Tube Videos 3884 ryushare uploaded keep2share

Young XXX Tube Videos 3884

Teens Love huge cooks 1166 ryushare uploaded keep2share

Teens Love huge cooks 1166

Tanned Fucking for money in the street ryushare uploaded keep2share

Tanned Fucking for money in the street

HD Porn Teen Sex Videos 224669 ryushare uploaded keep2share

HD Porn Teen Sex Videos 224669

non HD xxx movie ryushare uploaded keep2share

non HD xxx movie

download hd sex vids for pc 226447 ryushare uploaded keep2share

download hd sex vids for pc 226447

Teenage Fuck Clips 3782 ryushare uploaded keep2share

Teenage Fuck Clips 3782

HD Porn Videos 4330 ryushare uploaded keep2share

HD Porn Videos 4330

Tube Young Sex Amateur Orgy 4891 ryushare uploaded keep2share

Tube Young Sex Amateur Orgy 4891

wow cum com hd 226397 ryushare uploaded keep2share

wow cum com hd 226397

Teenies Videos – Teen Porn, Teen Sex, XXX Free Videos 1306 ryushare uploaded keep2share

Teenies Videos – Teen Porn, Teen Sex, XXX Free Videos 1306

Fucking a RedHair Sexy teen amateur ryushare uploaded keep2share

Fucking a RedHair Sexy teen amateur

Jungle Fever – Beata, Anjelica ryushare uploaded keep2share

Jungle Fever – Beata, Anjelica

8 Teen XXX – Teen Sex 4481 ryushare uploaded keep2share

8 Teen XXX – Teen Sex 4481

K Craving Lips 3 – A ryushare uploaded keep2share

K Craving Lips 3 – A

Hardcore Sex Hub 225234 ryushare uploaded keep2share

Hardcore Sex Hub 225234

Susan Ayn ryushare uploaded keep2share

Susan Ayn

High Definition Movies on HD Teen Porn XXX Tube 1708 ryushare uploaded keep2share

High Definition Movies on HD Teen Porn XXX Tube 1708

Teen porn xxx 223828 ryushare uploaded keep2share

Teen porn xxx 223828

SexArt.com Ivana Sugar & Vanda Lust – Rain ryushare uploaded keep2share

SexArt.com Ivana Sugar & Vanda Lust – Rain

Hardcore Sex Hub 1665 ryushare uploaded keep2share

Hardcore Sex Hub 1665

XXX young porn sex 3489 ryushare uploaded keep2share

XXX young porn sex 3489

NubilesPorn.com Jessie Volt – Juste Toi Et Moi ryushare uploaded keep2share

NubilesPorn.com Jessie Volt – Juste Toi Et Moi

Hd young videos 4049 ryushare uploaded keep2share

Hd young videos 4049

HD Teen Sex Tube 224893 ryushare uploaded keep2share

HD Teen Sex Tube 224893

sexual sex xxx 226605 ryushare uploaded keep2share

sexual sex xxx 226605

Young 720p hd porn 4581 ryushare uploaded keep2share

Young 720p hd porn 4581

xxx hd move Hq 226564 ryushare uploaded keep2share

xxx hd move Hq 226564

HD sex movies downloads 3614 ryushare uploaded keep2share

HD sex movies downloads 3614

HD Teens Sex Tube Videos XxX 5719 ryushare uploaded keep2share

HD Teens Sex Tube Videos XxX 5719

Carmen Fox – Fucked by the best client ryushare uploaded keep2share

Carmen Fox – Fucked by the best client

www xvedeo comhd ryushare uploaded keep2share

www xvedeo comhd

Report broken links / Post a comment

You must be logged in to post a comment.



General\r\nComplete name : D:hd teen mania porn babes ryushare keep2share uploaded easybytez fileomL.ex.i_D.ia.mo.nd.wmv\r\nFormat : Windows Media\r\nFile size : 424 MiB\r\nDuration : 27mn 40s\r\nOverall bit rate mode : Variable\r\nOverall bit rate : 2 143 Kbps\r\nMaximum Overall bit rate : 3 144 Kbps\r\nEncoded date : UTC 2010-05-22 20:44:57.979\r\n\r\nVideo\r\nID : 2\r\nFormat : VC-1\r\nFormat profile : MP@HL\r\nCodec ID : WMV3\r\nCodec ID/Info : Windows Media Video 9\r\nCodec ID/Hint : WMV3\r\nDescription of the codec : Windows Media Video 9 - Professional\r\nDuration : 27mn 40s\r\nBit rate mode : Variable\r\nBit rate : 2 000 Kbps\r\nWidth : 1 280 pixels\r\nHeight : 720 pixels\r\nDisplay aspect ratio : 16:9\r\nFrame rate : 29.970 fps\r\nColor space : YUV\r\nChroma subsampling : 4:2:0\r\nBit depth : 8 bits\r\nScan type : Progressive\r\nCompression mode : Lossy\r\nBits/(Pixel*Frame) : 0.072\r\nStream size : 396 MiB (93%)\r\n\r\nAudio\r\nID : 1\r\nFormat : WMA\r\nFormat profile : Pro\r\nCodec ID : 162\r\nCodec ID/Info : Windows Media Audio\r\nDescription of the codec : Windows Media Audio 10 Professional - 128 kbps, 44 kHz, 2 channel 16 bit 1-pass CBR\r\nDuration : 27mn 40s\r\nBit rate mode : Constant\r\nBit rate : 128 Kbps\r\nChannel(s) : 2 channels\r\nSampling rate : 44.1 KHz\r\nBit depth : 16 bits\r\nStream size : 25.3 MiB (6%)\r\n\r\n