Connie Stay by my Woman – YoungLegalPorn

Bella Baby 2013 - Facial Double Blowjob CumshotGrace Solo 2

Posted in HD Porn, Sex Movies, Teen | 19478 Views |


Rate this girl !!!


(57 raters, 210 scores, average: 3.68 out of 5, 73.68%)

Connie Stay by my Woman – YoungLegalPorn

Connie Stay by my Woman – YoungLegalPorn

Connie Stay by my Woman – YoungLegalPorn

Connie Stay by my Woman – YoungLegalPorn

Connie Stay by my Woman – YoungLegalPorn

Connie Stay by my Woman – YoungLegalPorn

Size: 381392270 bytes (363.72 MiB), duration: 00:21:50, avg.bitrate: 2329 kb/s
Audio: aac, 44100 Hz, 2 channels, s16, 151 kb/s (und)
Video: h264, yuv420p, 1280×720, 2171 kb/s, 29.97 fps(r) (und)



DOWNLOAD

Keep2share.cc - Uploaded.net - Openload.co - Rapidu.net



Premium here:
uploaded.net
keep2share.cc
rapidu.net.cc

Incoming search terms:

  • asiancandyshop grls
  • myteenxxxhd
  • www hdpronfuck com


Tags: , , , , , , , , ,

Teens related to Connie Stay by my Woman – YoungLegalPorn


Teens in Porno young porn videos and free teen sex 225947 ryushare uploaded keep2share

Teens in Porno young porn videos and free teen sex 225947

www xxx hd movi in 226018 ryushare uploaded keep2share

www xxx hd movi in 226018

Blonde fucked in all holes. Gang Bang ryushare uploaded keep2share

Blonde fucked in all holes. Gang Bang

Wow porn hd downloads 225829 ryushare uploaded keep2share

Wow porn hd downloads 225829

Young Sex Movies 224073 ryushare uploaded keep2share

Young Sex Movies 224073

pornstar young pornstar 226548 ryushare uploaded keep2share

pornstar young pornstar 226548

Sweet Teen Porn – Young Porn Videos 3641 ryushare uploaded keep2share

Sweet Teen Porn – Young Porn Videos 3641

Young teens tube hot girls free porn video 1794 ryushare uploaded keep2share

Young teens tube hot girls free porn video 1794

Teen Sex Videos Tube Movies 1466 ryushare uploaded keep2share

Teen Sex Videos Tube Movies 1466

Teen Sex Movies 1635 ryushare uploaded keep2share

Teen Sex Movies 1635

Teens in Porno young porn videos and free teen sex 225262 ryushare uploaded keep2share

Teens in Porno young porn videos and free teen sex 225262

Barezzers sexhd com 226100 ryushare uploaded keep2share

Barezzers sexhd com 226100

full hd 1020 ponr 226530 ryushare uploaded keep2share

full hd 1020 ponr 226530

Porn party teen girls 224442 ryushare uploaded keep2share

Porn party teen girls 224442

Porn HD Sex HD Teen Sex 224013 ryushare uploaded keep2share

Porn HD Sex HD Teen Sex 224013

Hardcore Sex Hub 225185 ryushare uploaded keep2share

Hardcore Sex Hub 225185

HD Teens Sex Tube Videos XxX 225300 ryushare uploaded keep2share

HD Teens Sex Tube Videos XxX 225300

Tiffany Fox, Alina Li – Sleepover Aftermath ryushare uploaded keep2share

Tiffany Fox, Alina Li – Sleepover Aftermath

Porno movies young teens lesbian 223864 ryushare uploaded keep2share

Porno movies young teens lesbian 223864

18YearsOld.com Alli Ray – Blindfold My Baby ryushare uploaded keep2share

18YearsOld.com Alli Ray – Blindfold My Baby

Hardcore Sex Hub 1355 ryushare uploaded keep2share

Hardcore Sex Hub 1355

image sexxxx porn 226599 ryushare uploaded keep2share

image sexxxx porn 226599

Teen xxx sex hd 224342 ryushare uploaded keep2share

Teen xxx sex hd 224342

tits free ryushare uploaded keep2share

tits free

www 3x saxy praan video com ryushare uploaded keep2share

www 3x saxy praan video com

HD Porn Teen Sex Videos 2783 ryushare uploaded keep2share

HD Porn Teen Sex Videos 2783

Adult Hardcore XXX Sex Videos 2982 ryushare uploaded keep2share

Adult Hardcore XXX Sex Videos 2982

Wow girls downloads hd 224848 ryushare uploaded keep2share

Wow girls downloads hd 224848

High Definition Movies on HD 1754 ryushare uploaded keep2share

High Definition Movies on HD 1754

HD Sex World Videos High Definition Free Porn 2359 ryushare uploaded keep2share

HD Sex World Videos High Definition Free Porn 2359

Valerie White – College Girls Are Easy ryushare uploaded keep2share

Valerie White – College Girls Are Easy

Uploaded net porn XXX 224151 ryushare uploaded keep2share

Uploaded net porn XXX 224151

Young XXX Tube Videos 4887 ryushare uploaded keep2share

Young XXX Tube Videos 4887

Young xxx 225249 ryushare uploaded keep2share

Young xxx 225249

Dreams-HD.com Nikka ryushare uploaded keep2share

Dreams-HD.com Nikka

Report broken links / Post a comment

You must be logged in to post a comment.



General
Complete name : H:HD TEENS PORN/DOWNLOAD/RYUSHARE/UPLOADED/KEEP2SHARE/TURBOBIT/XXX/YLP.Connie__Stay_By_my_Woman.mp4
Format : MPEG-4
Format profile : Base Media
Codec ID : isom
File size : 364 MiB
Duration : 21mn 50s
Overall bit rate mode : Variable
Overall bit rate : 2 329 Kbps
Writing application : Lavf52.64.2

Video
ID : 1
Format : AVC
Format/Info : Advanced Video Codec
Format profile : High@L3.1
Format settings, CABAC : Yes
Format settings, ReFrames : 2 frames
Codec ID : avc1
Codec ID/Info : Advanced Video Coding
Duration : 21mn 50s
Bit rate : 2 172 Kbps
Width : 1 280 pixels
Height : 720 pixels
Display aspect ratio : 16:9
Frame rate mode : Constant
Frame rate : 29.970 fps
Color space : YUV
Chroma subsampling : 4:2:0
Bit depth : 8 bits
Scan type : Progressive
Bits/(Pixel*Frame) : 0.079
Stream size : 339 MiB (93%)
Writing library : x264 core 102 r1666 d058f37
Encoding settings : cabac=1 / ref=2 / deblock=1:0:0 / analyse=0x3:0x113 / me=hex / subme=6 / psy=1 / psy_rd=1.00:0.00 / mixed_ref=0 / me_range=16 / chroma_me=1 / trellis=0 / 8x8dct=1 / cqm=0 / deadzone=21,11 / fast_pskip=1 / chroma_qp_offset=-2 / threads=24 / sliced_threads=0 / nr=0 / decimate=1 / interlaced=0 / constrained_intra=0 / bframes=3 / b_pyramid=0 / b_adapt=1 / b_bias=0 / direct=3 / weightb=1 / open_gop=0 / weightp=2 / keyint=250 / keyint_min=25 / scenecut=40 / intra_refresh=0 / rc_lookahead=40 / rc=crf / mbtree=1 / crf=20.0 / qcomp=0.60 / qpmin=10 / qpmax=51 / qpstep=4 / ip_ratio=1.41 / aq=1:1.00

Audio
ID : 2
Format : AAC
Format/Info : Advanced Audio Codec
Format profile : LC
Codec ID : 40
Duration : 21mn 50s
Bit rate mode : Variable
Bit rate : 151 Kbps
Channel(s) : 2 channels
Channel positions : Front: L R
Sampling rate : 44.1 KHz
Compression mode : Lossy
Delay relative to video : 33ms
Stream size : 23.6 MiB (6%)