Dani Jensen – NaughtyAmerica

Adele Sunshine - George on AdeleNaughty Temptress - Capri Anderson

Posted in HD Porn, Pornstar, Sex Movies, Teen | 23086 Views |


Rate this girl !!!




[MyFriendsHotGirl.com / NaughtyAmerica.com] Dani Jensen (15985 / 08.04.13) [2013., Natural Tits, Blowjob, Red Head, Petite, Tattoos, 1080p]\r\n\r\npic\r\n\r\nName of the actress : Dani JensenPodsayt and poster : MyFriendsHotGirl.com / NaughtyAmerica.com \r\n\r\nYear : 2013. Genre : Natural Tits, Blowjob, Red Head, Petite, Tattoos \r\n\r\nDuration : 00:31:28 \r\n\r\nDescription : Dani Jensen’s boyfriend is working late, and they’re going out to dinner with his buddy Sonny, so he ends up picking Dani up and they just plan on meeting her man at the restaurant. Dani’s about ready to go in her pretty green dress when – whoops! – She spills a glass of wine down her front. Sonny tells her not to worry and go change, but he’s surprised when she pulls two new outfits out to the living room and changes right in front of him, trying them on! She finally realizes that he’s ogling over her state of undress, egging her on to take off her panties so her lines don’t show … and she likes it. The sexy redhead is ready for the main course of Sonny’s dick in her mouth before she even gets to the restaurant.\r\nHD Video Type : 1080p Video : MPEG4 Video (H264) 1920×1080 30.00fps 5000Kbps Audio : AAC 48000Hz stereo 128Kbps\r\n\r\n\r\n\r\n\r\n\r\n



DOWNLOAD

Keep2share.cc - Uploaded.net - Openload.co - Rapidu.net


http://ryushare.com/e77frqrtcg9n/mfhgdanijensensonny_1080.mp4
http://ul.to/dmaoxc6c/mfhgdanijensensonny_1080.mp4


Premium here:
uploaded.net
keep2share.cc
rapidu.net.cc

Teens related to Dani Jensen – NaughtyAmerica


Small girls and boys porn 2683 ryushare uploaded keep2share

Small girls and boys porn 2683

NubileFilms.com Karol Lilien – Sounds Of Passion ryushare uploaded keep2share

NubileFilms.com Karol Lilien – Sounds Of Passion

Young Sex Movies 2737 ryushare uploaded keep2share

Young Sex Movies 2737

Hot Teen Sex HD videos 224108 ryushare uploaded keep2share

Hot Teen Sex HD videos 224108

sexHD videos mkv ryushare uploaded keep2share

sexHD videos mkv

Veiki & Liona – Two Is Better Then One ryushare uploaded keep2share

Veiki & Liona – Two Is Better Then One

Porn party teen girls 224442 ryushare uploaded keep2share

Porn party teen girls 224442

Upload Hdxxx short videos ryushare uploaded keep2share

Upload Hdxxx short videos

Dunya – Dreams-HD ryushare uploaded keep2share

Dunya – Dreams-HD

Uploaded net porn 3849 ryushare uploaded keep2share

Uploaded net porn 3849

hd yes xxxporn ryushare uploaded keep2share

hd yes xxxporn

Teen Tits Tube, Young Girls Porn Videos 2910 ryushare uploaded keep2share

Teen Tits Tube, Young Girls Porn Videos 2910

Wow porn tube movies 224745 ryushare uploaded keep2share

Wow porn tube movies 224745

new porn video pc hd download ryushare uploaded keep2share

new porn video pc hd download

Alice March – Smooth as Silk ryushare uploaded keep2share

Alice March – Smooth as Silk

Young russian – Clubseventeen ryushare uploaded keep2share

Young russian – Clubseventeen

Rocco Siffred – Kiara Lord – POV ryushare uploaded keep2share

Rocco Siffred – Kiara Lord – POV

HD Teen Sex Tube 1330 ryushare uploaded keep2share

HD Teen Sex Tube 1330

Free Young Porn Videos XXX Teen Porn 3495 ryushare uploaded keep2share

Free Young Porn Videos XXX Teen Porn 3495

Hardcore Sex Hub 224794 ryushare uploaded keep2share

Hardcore Sex Hub 224794

HQ Sex Movies Download 4625 ryushare uploaded keep2share

HQ Sex Movies Download 4625

Angelica, The Red Fox X-Art.com ryushare uploaded keep2share

Angelica, The Red Fox X-Art.com

Jasmine Caro – All day long ryushare uploaded keep2share

Jasmine Caro – All day long

Two Teasing Tongues 10 – A ryushare uploaded keep2share

Two Teasing Tongues 10 – A

xxxvideo s HD com 226265 ryushare uploaded keep2share

xxxvideo s HD com 226265

Watch Teen Sex Videos HD 1216 ryushare uploaded keep2share

Watch Teen Sex Videos HD 1216

Free High Quality Sex Movies 1901 ryushare uploaded keep2share

Free High Quality Sex Movies 1901

Brunette Shelia Gets a Big Load Of Cum ryushare uploaded keep2share

Brunette Shelia Gets a Big Load Of Cum

Young teens tube hot girls free porn video 2600 ryushare uploaded keep2share

Young teens tube hot girls free porn video 2600

Young Virgin Pussy Teen Fuck Tube 4173 ryushare uploaded keep2share

Young Virgin Pussy Teen Fuck Tube 4173

Teen sex xxx hd 4489 ryushare uploaded keep2share

Teen sex xxx hd 4489

Clubseventeen 507 Mb 226566 ryushare uploaded keep2share

Clubseventeen 507 Mb 226566

Porno movies young teens lesbian 224977 ryushare uploaded keep2share

Porno movies young teens lesbian 224977

sex hd gir down video com ryushare uploaded keep2share

sex hd gir down video com

Teens in Porno young porn videos and free teen sex 225522 ryushare uploaded keep2share

Teens in Porno young porn videos and free teen sex 225522

Report broken links / Post a comment

You must be logged in to post a comment.



General\r\nComplete name : D:HD Teens Download Porn Sex clips movies Tubemfhgdanijensensonny_1080.mp4\r\nFormat : MPEG-4\r\nFormat profile : Base Media\r\nCodec ID : isom\r\nFile size : 1.13 GiB\r\nDuration : 31mn 27s\r\nOverall bit rate mode : Variable\r\nOverall bit rate : 5 126 Kbps\r\nEncoded date : UTC 2013-04-05 17:53:59\r\nTagged date : UTC 2013-04-05 17:53:59\r\nWriting application : Lavf53.32.100\r\n\r\nVideo\r\nID : 1\r\nFormat : AVC\r\nFormat/Info : Advanced Video Codec\r\nFormat profile : High@L3.0\r\nFormat settings, CABAC : Yes\r\nFormat settings, ReFrames : 4 frames\r\nCodec ID : avc1\r\nCodec ID/Info : Advanced Video Coding\r\nDuration : 31mn 27s\r\nBit rate : 5 000 Kbps\r\nWidth : 1 920 pixels\r\nHeight : 1 080 pixels\r\nDisplay aspect ratio : 16:9\r\nFrame rate mode : Constant\r\nFrame rate : 30.000 fps\r\nColor space : YUV\r\nChroma subsampling : 4:2:0\r\nBit depth : 8 bits\r\nScan type : Progressive\r\nBits/(Pixel*Frame) : 0.080\r\nStream size : 1.10 GiB (98%)\r\nWriting library : x264 core 120\r\nEncoding settings : cabac=1 / ref=4 / deblock=1:0:0 / analyse=0x3:0x113 / me=umh / subme=7 / psy=0 / mixed_ref=1 / me_range=16 / chroma_me=1 / trellis=1 / 8x8dct=1 / cqm=0 / deadzone=21,11 / fast_pskip=0 / chroma_qp_offset=0 / threads=48 / sliced_threads=0 / nr=0 / decimate=1 / interlaced=0 / bluray_compat=0 / constrained_intra=0 / bframes=16 / b_pyramid=2 / b_adapt=1 / b_bias=0 / direct=3 / weightb=1 / open_gop=0 / weightp=2 / keyint=300 / keyint_min=25 / scenecut=40 / intra_refresh=0 / rc=2pass / mbtree=0 / bitrate=5000 / ratetol=1.0 / qcomp=0.60 / qpmin=10 / qpmax=51 / qpstep=4 / cplxblur=20.0 / qblur=0.5 / ip_ratio=1.40 / pb_ratio=1.30 / aq=1:1.00\r\nLanguage : English\r\nEncoded date : UTC 2013-04-05 17:53:59\r\nTagged date : UTC 2013-04-05 17:53:59\r\n\r\nAudio\r\nID : 2\r\nFormat : AAC\r\nFormat/Info : Advanced Audio Codec\r\nFormat profile : LC\r\nCodec ID : 40\r\nDuration : 31mn 27s\r\nBit rate mode : Variable\r\nBit rate : 116 Kbps\r\nMaximum bit rate : 160 Kbps\r\nChannel(s) : 2 channels\r\nChannel positions : Front: L R\r\nSampling rate : 48.0 KHz\r\nCompression mode : Lossy\r\nStream size : 26.2 MiB (2%)\r\nLanguage : English\r\nEncoded date : UTC 2013-04-05 17:53:59\r\nTagged date : UTC 2013-04-05 17:53:59\r\n\r\n