Dusya – Crazy Adult Massage

Fresh Teen Videos 3763Yulia - Wild Anal Slut Owned In The Forest

Posted in Amateur, HD Porn, Sex Movies, Teen | 19733 Views |


Rate this girl !!!




HDMassagePorn – Dusya – Crazy Adult Massage Video [FullHD 1080p]

\r\n

HDMassagePorn - Dusya - Crazy Adult Massage Video [FullHD 1080p] 1

\r\n

\r\n

This sassy brunette came here for a session of hot erotic massage, and she got even more than she expected. The well-hung massagist fingered her wet pussy and let her suck his big cock. The heated fucking session that followed is an absolute must-see for any admirer of hot massage fuck videos\r\n\r\nOriginal Name: Crazy Adult Massage Video\r\nStarring: Dusya\r\nStudio: HDMassagePorn\r\nGenre: Teen, All Sex, Amateur, Facial, Students, Blowjob, Cumshots, Slender, Shaved, Brunette, Natural Tits\r\nDuration: 25 min.\r\n\r\nQuality: FullHD\r\nType HD Video: 1080p\r\nFormat: MP4\r\nVideo: 1920 x 1080, 3452 kbps\r\nAudio: MPEG-4, 44100Hz, 160 kb/s, Stereo\r\nSize: 624 Mb

\r\n

\r\n

HDMassagePorn - Dusya - Crazy Adult Massage Video [FullHD 1080p] 2



DOWNLOAD

Keep2share.cc - Uploaded.net - Openload.co - Rapidu.net


http://ryushare.com/07y2fhlcnu2q/Dvsya_FullHD.mp4
http://turbobit.net/0ugsl775y0t2.html
http://ul.to/ve0g6jgb


Premium here:
uploaded.net
keep2share.cc
rapidu.net.cc

Teens related to Dusya – Crazy Adult Massage


HQ Sex Movies Download 1132 ryushare uploaded keep2share

HQ Sex Movies Download 1132

HQ Sex Movies Download 1982 ryushare uploaded keep2share

HQ Sex Movies Download 1982

avi full hd porn 226178 ryushare uploaded keep2share

avi full hd porn 226178

Beata Fucking in swimming pool ryushare uploaded keep2share

Beata Fucking in swimming pool

HQ Sex Movies Download 2815 ryushare uploaded keep2share

HQ Sex Movies Download 2815

Hot hd teen sex videos 3484 ryushare uploaded keep2share

Hot hd teen sex videos 3484

HQ Sex Movies Download 225197 ryushare uploaded keep2share

HQ Sex Movies Download 225197

College Teen Sex 225537 ryushare uploaded keep2share

College Teen Sex 225537

Teen Sex Movies Young Porn Tube Vids 224457 ryushare uploaded keep2share

Teen Sex Movies Young Porn Tube Vids 224457

Veronica Radke Tube Young Sex 3483 ryushare uploaded keep2share

Veronica Radke Tube Young Sex 3483

Naughty Temptress – Capri Anderson ryushare uploaded keep2share

Naughty Temptress – Capri Anderson

8 Teen XXX – Teen Sex 4550 ryushare uploaded keep2share

8 Teen XXX – Teen Sex 4550

Bella Baby 2013 – Facial Double Blowjob Cumshot ryushare uploaded keep2share

Bella Baby 2013 – Facial Double Blowjob Cumshot

Hot Teen Sex 4324 ryushare uploaded keep2share

Hot Teen Sex 4324

Young teens tube hot girls free porn video 4952 ryushare uploaded keep2share

Young teens tube hot girls free porn video 4952

Free High Quality Sex Movies 4635 ryushare uploaded keep2share

Free High Quality Sex Movies 4635

Young russian – Clubseventeen ryushare uploaded keep2share

Young russian – Clubseventeen

1080P full hd hordcore sex movies ryushare uploaded keep2share

1080P full hd hordcore sex movies

Young Sex Movies 225490 ryushare uploaded keep2share

Young Sex Movies 225490

kylee wow girls porn tubes ryushare uploaded keep2share

kylee wow girls porn tubes

SONJA N – fuck my natural hairy pussy ryushare uploaded keep2share

SONJA N – fuck my natural hairy pussy

xxx teensexvideos3 4 mb 226244 ryushare uploaded keep2share

xxx teensexvideos3 4 mb 226244

Wow girls porn teens 3486 ryushare uploaded keep2share

Wow girls porn teens 3486

Beautiful small tits ryushare uploaded keep2share

Beautiful small tits

WebYoung.com Sammie Daniels, Samantha Rone ryushare uploaded keep2share

WebYoung.com Sammie Daniels, Samantha Rone

Girls sex art hd teens videos 224203 ryushare uploaded keep2share

Girls sex art hd teens videos 224203

Kathia Nobili, Meg Magic – Low Self-Esteem ryushare uploaded keep2share

Kathia Nobili, Meg Magic – Low Self-Esteem

ww pink world net ryushare uploaded keep2share

ww pink world net

X-art Scarlet Jayden Blindfold me part2 ryushare uploaded keep2share

X-art Scarlet Jayden Blindfold me part2

College Teen Sex 1921 ryushare uploaded keep2share

College Teen Sex 1921

Hardcore Sex Hub 3273 ryushare uploaded keep2share

Hardcore Sex Hub 3273

Hot Teen Sex 224365 ryushare uploaded keep2share

Hot Teen Sex 224365

K Three Teasing Tongues 3 ryushare uploaded keep2share

K Three Teasing Tongues 3

[PornFidelity.com] Alix Lynx (Poolguy / 2016-12-02) [2016 г., Deep Throat, Swallow, Big Tits, All Sex, 1080p] ryushare uploaded keep2share

[PornFidelity.com] Alix Lynx (Poolguy / 2016-12-02) [2016 г., Deep Throat, Swallow, Big Tits, All Sex, 1080p]

High Definition Movies on HD 224619 ryushare uploaded keep2share

High Definition Movies on HD 224619

Report broken links / Post a comment

You must be logged in to post a comment.



General\r\nComplete name : D:JDdescargasDusya_FullHDDusya_FullHD.mp4\r\nFormat : MPEG-4\r\nFormat profile : Base Media\r\nCodec ID : isom\r\nFile size : 624 MiB\r\nDuration : 24mn 9s\r\nOverall bit rate : 3 612 Kbps\r\nWriting application : Lavf54.59.106\r\n\r\nVideo\r\nID : 1\r\nFormat : AVC\r\nFormat/Info : Advanced Video Codec\r\nFormat profile : High@L5.0\r\nFormat settings, CABAC : Yes\r\nFormat settings, ReFrames : 5 frames\r\nCodec ID : avc1\r\nCodec ID/Info : Advanced Video Coding\r\nDuration : 24mn 9s\r\nBit rate : 3 443 Kbps\r\nWidth : 1 920 pixels\r\nHeight : 1 080 pixels\r\nDisplay aspect ratio : 16:9\r\nFrame rate mode : Constant\r\nFrame rate : 29.970 fps\r\nColor space : YUV\r\nChroma subsampling : 4:2:0\r\nBit depth : 8 bits\r\nScan type : Progressive\r\nBits/(Pixel*Frame) : 0.055\r\nStream size : 595 MiB (95%)\r\nWriting library : x264 core 129 r2245 bc13772\r\nEncoding settings : cabac=1 / ref=5 / deblock=1:0:0 / analyse=0x3:0x113 / me=umh / subme=8 / psy=1 / psy_rd=1.00:0.00 / mixed_ref=1 / me_range=16 / chroma_me=1 / trellis=1 / 8x8dct=1 / cqm=0 / deadzone=21,11 / fast_pskip=1 / chroma_qp_offset=0 / threads=6 / lookahead_threads=1 / sliced_threads=0 / nr=0 / decimate=1 / interlaced=0 / bluray_compat=0 / constrained_intra=0 / bframes=3 / b_pyramid=2 / b_adapt=2 / b_bias=0 / direct=3 / weightb=1 / open_gop=0 / weightp=2 / keyint=150 / keyint_min=15 / scenecut=40 / intra_refresh=0 / rc_lookahead=50 / rc=crf / mbtree=1 / crf=22.0 / qcomp=0.60 / qpmin=0 / qpmax=69 / qpstep=4 / vbv_maxrate=9000 / vbv_bufsize=9000 / crf_max=0.0 / nal_hrd=none / ip_ratio=1.40 / aq=1:1.00\r\n\r\nAudio\r\nID : 2\r\nFormat : AAC\r\nFormat/Info : Advanced Audio Codec\r\nFormat profile : LC\r\nCodec ID : 40\r\nDuration : 24mn 9s\r\nDuration_LastFrame : -10ms\r\nBit rate mode : Constant\r\nBit rate : 160 Kbps\r\nChannel(s) : 2 channels\r\nChannel positions : Front: L R\r\nSampling rate : 44.1 KHz\r\nCompression mode : Lossy\r\nStream size : 27.6 MiB (4%)\r\n\r\n