First time Sexual Films 18 sex xxx 3689

Porn HD Sex HD Teen Sex 3694HD sex movies downloads 3688

Posted in Amateur, HD Porn, Sex Movies, Teen | 264204 Views |


Rate this girl !!!




\r\n\r\n\r\n 



DOWNLOAD

Keep2share.cc - Uploaded.net - Openload.co - Rapidu.net


http://ul.to/iumkq2wa/NBSVDvl.wmv
http://ryushare.com/edlqi5u72jbv/NBSVDvl.wmv
http://k2s.cc/file/fe9194683f6d4/NBSVDvl.wmv
http://fileom.com/7u0psyr0m15f/NBSVDvl.wmv.html


Premium here:
uploaded.net
keep2share.cc
rapidu.net.cc


Teens related to First time Sexual Films 18 sex xxx 3689


purn 720 com ryushare uploaded keep2share

purn 720 com

Young Sex Movies 224761 ryushare uploaded keep2share

Young Sex Movies 224761

Teen Porn XXX Tube 3791 ryushare uploaded keep2share

Teen Porn XXX Tube 3791

download hd sex vids for pc 226447 ryushare uploaded keep2share

download hd sex vids for pc 226447

Wow girls porn teens 4595 ryushare uploaded keep2share

Wow girls porn teens 4595

18 xxx potn srx 226432 ryushare uploaded keep2share

18 xxx potn srx 226432

Porno movies young teens lesbian 224607 ryushare uploaded keep2share

Porno movies young teens lesbian 224607

HD Porn Teen Sex Videos 3959 ryushare uploaded keep2share

HD Porn Teen Sex Videos 3959

HD Teens Sex Tube Videos XxX 5400 ryushare uploaded keep2share

HD Teens Sex Tube Videos XxX 5400

Free Porn Videos Xxx Movies Pussy Porn 5701 ryushare uploaded keep2share

Free Porn Videos Xxx Movies Pussy Porn 5701

Sasha Foxxx (Sasha’s edging orgasm control) ryushare uploaded keep2share

Sasha Foxxx (Sasha’s edging orgasm control)

noveteens girls models clips 226158 ryushare uploaded keep2share

noveteens girls models clips 226158

Young Sex Movies 224764 ryushare uploaded keep2share

Young Sex Movies 224764

Young Sex Movies 225730 ryushare uploaded keep2share

Young Sex Movies 225730

Young xxx 224648 ryushare uploaded keep2share

Young xxx 224648

xxx hd move Hq 226564 ryushare uploaded keep2share

xxx hd move Hq 226564

HD Porn Teen Sex Videos 225926 ryushare uploaded keep2share

HD Porn Teen Sex Videos 225926

A lot of cocks for a teen ryushare uploaded keep2share

A lot of cocks for a teen

www hd 18years sex videos free downlode net 226256 ryushare uploaded keep2share

www hd 18years sex videos free downlode net 226256

www fast taim xxx HDCom 226740 ryushare uploaded keep2share

www fast taim xxx HDCom 226740

HQ Sex Movies Download 4735 ryushare uploaded keep2share

HQ Sex Movies Download 4735

Teen porn movies 225402 ryushare uploaded keep2share

Teen porn movies 225402

Babes Giselle Leon 1080p ryushare uploaded keep2share

Babes Giselle Leon 1080p

Young schoolgirl fucked hard ryushare uploaded keep2share

Young schoolgirl fucked hard

Young Virgin Pussy Teen Fuck Tube 225715 ryushare uploaded keep2share

Young Virgin Pussy Teen Fuck Tube 225715

Fresh Teen Videos 225576 ryushare uploaded keep2share

Fresh Teen Videos 225576

HQ Sex Movies Download 225194 ryushare uploaded keep2share

HQ Sex Movies Download 225194

Amazing Outdoors – Beautiful Brunette ryushare uploaded keep2share

Amazing Outdoors – Beautiful Brunette

Katja N – Katja Loves The Taste Of His Cum ryushare uploaded keep2share

Katja N – Katja Loves The Taste Of His Cum

[PublicAgent.com] Stella Cox – Big Natural Boobs Fucked in Public ryushare uploaded keep2share

[PublicAgent.com] Stella Cox – Big Natural Boobs Fucked in Public

Hardcore sex videos in the high definition quality 5087 ryushare uploaded keep2share

Hardcore sex videos in the high definition quality 5087

HD Sex World Videos High Definition Free Porn 3501 ryushare uploaded keep2share

HD Sex World Videos High Definition Free Porn 3501

free download sovjetmassage com 226506 ryushare uploaded keep2share

free download sovjetmassage com 226506

Teen Sex Videos Tube Movies 4833 ryushare uploaded keep2share

Teen Sex Videos Tube Movies 4833

teenseks1819 226156 ryushare uploaded keep2share

teenseks1819 226156

Report broken links / Post a comment

You must be logged in to post a comment.



General\r\nComplete name : D:hd pornstars teens ryushare.com uploaded.net keep2share.cc fileom.com download porn movies clips NBSVDvl.wmv\r\nFormat : Windows Media\r\nFile size : 419 MiB\r\nDuration : 16mn 9s\r\nOverall bit rate mode : Constant\r\nOverall bit rate : 3 627 Kbps\r\nMaximum Overall bit rate : 3 658 Kbps\r\nEncoded date : UTC 2012-09-18 15:32:45.977\r\nWriting application : TMPGEnc Video Mastering Works 5 Version. 5.1.1.52\r\n\r\nVideo\r\nID : 2\r\nFormat : VC-1\r\nFormat profile : MP@HL\r\nCodec ID : WMV3\r\nCodec ID/Info : Windows Media Video 9\r\nCodec ID/Hint : WMV3\r\nDescription of the codec : Windows Media Video 9 - Professional\r\nDuration : 16mn 9s\r\nBit rate mode : Constant\r\nBit rate : 3 500 Kbps\r\nWidth : 1 280 pixels\r\nHeight : 720 pixels\r\nDisplay aspect ratio : 16:9\r\nFrame rate : 25.000 fps\r\nColor space : YUV\r\nChroma subsampling : 4:2:0\r\nBit depth : 8 bits\r\nScan type : Progressive\r\nCompression mode : Lossy\r\nBits/(Pixel*Frame) : 0.152\r\nStream size : 404 MiB (96%)\r\nLanguage : English (US)\r\n\r\nAudio\r\nID : 1\r\nFormat : WMA\r\nFormat version : Version 2\r\nCodec ID : 161\r\nCodec ID/Info : Windows Media Audio\r\nDescription of the codec : Windows Media Audio 9.2 - 128 kbps, 48 kHz, stereo 1-pass CBR\r\nDuration : 16mn 9s\r\nBit rate mode : Constant\r\nBit rate : 128 Kbps\r\nChannel(s) : 2 channels\r\nSampling rate : 48.0 KHz\r\nBit depth : 16 bits\r\nStream size : 14.8 MiB (4%)\r\nLanguage : English (US)\r\n\r\nhd pornstars teens ryushare.com uploaded.net keep2share.cc fileom.com download porn movies clips