Free High Quality Sex Movies 1175

Teen Porn XXX Tube 1179HD Porn Videos 1169

Posted in HD Porn, Sex Movies, Teen, Threesome | 6358 Views |


Rate this girl !!!




\r\n\r\n\r\n \r\n\r\nhttp://img56.imagetwist.com/i/05163/etwv39lcvi4v.jpg\r\n\r\n Link(755 Mb||24:22||1280*720||MP4) \r\n\r\n 



DOWNLOAD

Keep2share.cc - Uploaded.net - Openload.co - Rapidu.net


http://ul.to/bnz0zx2r
http://ryushare.com/u6929rympefh/BSDHRMkv.rar
http://keep2share.cc/file/52ef9ade96c9e


Premium here:
uploaded.net
keep2share.cc
rapidu.net.cc


Teens related to Free High Quality Sex Movies 1175


Hot download sex girls movies 224376 ryushare uploaded keep2share

Hot download sex girls movies 224376

Chelsea – First & Forever ryushare uploaded keep2share

Chelsea – First & Forever

TeenyLovers – Zlata ryushare uploaded keep2share

TeenyLovers – Zlata

wow so hot movies hd faapy xxx com ryushare uploaded keep2share

wow so hot movies hd faapy xxx com

www xxx videos dawnload com ryushare uploaded keep2share

www xxx videos dawnload com

HD Porn Teen Sex Videos 1479 ryushare uploaded keep2share

HD Porn Teen Sex Videos 1479

Good Teen Tube Sexy Young Naked Girls Movies 224925 ryushare uploaded keep2share

Good Teen Tube Sexy Young Naked Girls Movies 224925

[PublicAgent.com] Caroline Ardolino – Milf gets fucked hard for cash ryushare uploaded keep2share

[PublicAgent.com] Caroline Ardolino – Milf gets fucked hard for cash

HD porn teen downloads 2715 ryushare uploaded keep2share

HD porn teen downloads 2715

www hdworld xxx video com ryushare uploaded keep2share

www hdworld xxx video com

image sexxxx porn 226599 ryushare uploaded keep2share

image sexxxx porn 226599

Watch Teen Sex Videos HD 225256 ryushare uploaded keep2share

Watch Teen Sex Videos HD 225256

Teen Porn XXX Tube 1179 ryushare uploaded keep2share

Teen Porn XXX Tube 1179

Wild And Crazy Student Sex Party ryushare uploaded keep2share

Wild And Crazy Student Sex Party

hq Pron movies downlod ryushare uploaded keep2share

hq Pron movies downlod

Teenage Fuck Clips 2933 ryushare uploaded keep2share

Teenage Fuck Clips 2933

Teen xxx sex hd 5540 ryushare uploaded keep2share

Teen xxx sex hd 5540

Hot download sex girls movies 5477 ryushare uploaded keep2share

Hot download sex girls movies 5477

PrivateSexTapes yulia anal ryushare uploaded keep2share

PrivateSexTapes yulia anal

High Definition Movies on HD 5169 ryushare uploaded keep2share

High Definition Movies on HD 5169

Sweet Teen Porn – Young Porn Videos 3539 ryushare uploaded keep2share

Sweet Teen Porn – Young Porn Videos 3539

Teen porn xxx 5290 ryushare uploaded keep2share

Teen porn xxx 5290

Passion-HD Lily Ariana 1080 ryushare uploaded keep2share

Passion-HD Lily Ariana 1080

Amazing Outdoors – Beautiful Brunette ryushare uploaded keep2share

Amazing Outdoors – Beautiful Brunette

Nude Teens fucking hard 5075 ryushare uploaded keep2share

Nude Teens fucking hard 5075

HD Sex World Videos High Definition Free Porn 1604 ryushare uploaded keep2share

HD Sex World Videos High Definition Free Porn 1604

Teen Sex Porn Videos Free Nude Teens 5135 ryushare uploaded keep2share

Teen Sex Porn Videos Free Nude Teens 5135

HD sex movies downloads 2913 ryushare uploaded keep2share

HD sex movies downloads 2913

Fresh Teen Videos 225259 ryushare uploaded keep2share

Fresh Teen Videos 225259

Hot Teen Sex HD videos 223993 ryushare uploaded keep2share

Hot Teen Sex HD videos 223993

Teen Sex Movies 224712 ryushare uploaded keep2share

Teen Sex Movies 224712

Teen Sex Movies Young Porn Tube Vids 225957 ryushare uploaded keep2share

Teen Sex Movies Young Porn Tube Vids 225957

www xxx hq sex 2014 com ryushare uploaded keep2share

www xxx hq sex 2014 com

www hd video xxx old 226453 ryushare uploaded keep2share

www hd video xxx old 226453

download hd romantic porn movie 226329 ryushare uploaded keep2share

download hd romantic porn movie 226329

Report broken links / Post a comment

You must be logged in to post a comment.



General\r\nComplete name : D:HD TeenMania Porn Sex videosxxxBSDHRMkvBSDHRMkv.mp4\r\nFormat : MPEG-4\r\nFormat profile : Base Media\r\nCodec ID : isom\r\nFile size : 755 MiB\r\nDuration : 24mn 23s\r\nOverall bit rate : 4 328 Kbps\r\nWriting application : Lavf55.7.100\r\n\r\nVideo\r\nID : 1\r\nFormat : AVC\r\nFormat/Info : Advanced Video Codec\r\nFormat profile : High@L4.1\r\nFormat settings, CABAC : Yes\r\nFormat settings, ReFrames : 5 frames\r\nCodec ID : avc1\r\nCodec ID/Info : Advanced Video Coding\r\nDuration : 24mn 22s\r\nBit rate : 4 000 Kbps\r\nWidth : 1 280 pixels\r\nHeight : 720 pixels\r\nDisplay aspect ratio : 16:9\r\nFrame rate mode : Constant\r\nFrame rate : 29.970 fps\r\nColor space : YUV\r\nChroma subsampling : 4:2:0\r\nBit depth : 8 bits\r\nScan type : Progressive\r\nBits/(Pixel*Frame) : 0.145\r\nStream size : 700 MiB (93%)\r\nWriting library : x264 core 133 r2334 a3ac64b\r\nEncoding settings : cabac=1 / ref=5 / deblock=1:0:0 / analyse=0x3:0x113 / me=umh / subme=8 / psy=1 / psy_rd=1.00:0.00 / mixed_ref=1 / me_range=16 / chroma_me=1 / trellis=1 / 8x8dct=1 / cqm=0 / deadzone=21,11 / fast_pskip=1 / chroma_qp_offset=-2 / threads=6 / lookahead_threads=1 / sliced_threads=0 / nr=0 / decimate=1 / interlaced=0 / bluray_compat=0 / constrained_intra=0 / bframes=3 / b_pyramid=2 / b_adapt=2 / b_bias=0 / direct=3 / weightb=1 / open_gop=0 / weightp=2 / keyint=60 / keyint_min=6 / scenecut=40 / intra_refresh=0 / rc_lookahead=50 / rc=abr / mbtree=1 / bitrate=4000 / ratetol=1.0 / qcomp=0.60 / qpmin=0 / qpmax=69 / qpstep=4 / ip_ratio=1.40 / aq=1:1.00\r\nLanguage : English\r\nTagged date : UTC 2014-01-18 04:01:32\r\n\r\nAudio\r\nID : 2\r\nFormat : AAC\r\nFormat/Info : Advanced Audio Codec\r\nFormat profile : LC\r\nCodec ID : 40\r\nDuration : 24mn 23s\r\nDuration_LastFrame : -9ms\r\nBit rate mode : Constant\r\nBit rate : 128 Kbps\r\nChannel(s) : 2 channels\r\nChannel positions : Front: L R\r\nSampling rate : 48.0 KHz\r\nCompression mode : Lossy\r\nStream size : 22.3 MiB (3%)\r\nLanguage : English\r\nTagged date : UTC 2014-01-18 04:01:32\r\n\r\n