Free High Quality Sex Movies 1788

Young XXX Tube Videos 1801First time Sexual Films 18 sex xxx 1785

Posted in Amateur, HD Porn, Sex Movies, Teen, Threesome | 10028 Views |


Rate this girl !!!


(58 raters, 206 scores, average: 3.55 out of 5, 71.03%)

\r\n\r\n\r\n\r\nhttp://img102.imagetwist.com/i/05280/ov666herd2hr.jpeg\r\n\r\n Link(1.99 Gb||57:47||1280*720||MP4)



DOWNLOAD

Keep2share.cc - Uploaded.net - Openload.co - Rapidu.net


http://keep2share.cc/file/8637c3ec99733
http://ryushare.com/7o5cnchdtlo6/SMJNCGth.rar
http://ul.to/lujhajha


Premium here:
uploaded.net
keep2share.cc
rapidu.net.cc

Incoming search terms:

  • fullhdpornsex
  • fullhdpornsex com
  • www fullhdpornsex com
  • free fullhdpornsex com
  • www hdteen mania com torrent
  • fullhdpornsax
  • FULLHDpornsseex com
  • full hd pornsex com
  • fullhdporndsex
  • full HDpornsex com
  • www fullhdpornsex
  • xxx full movies download 1788


Teens related to Free High Quality Sex Movies 1788


Wow Xxxsexvideos Com 226707 ryushare uploaded keep2share

Wow Xxxsexvideos Com 226707

Teen Sex Videos Tube Movies 225390 ryushare uploaded keep2share

Teen Sex Videos Tube Movies 225390

Porno movies young teens lesbian 224607 ryushare uploaded keep2share

Porno movies young teens lesbian 224607

Sweet Teen Porn – sex in the kitchen ryushare uploaded keep2share

Sweet Teen Porn – sex in the kitchen

Hot Teen Sex 2379 ryushare uploaded keep2share

Hot Teen Sex 2379

Sex and lots of milk ryushare uploaded keep2share

Sex and lots of milk

George on Morgan ryushare uploaded keep2share

George on Morgan

4 mb porn massage fuck x videos 226297 ryushare uploaded keep2share

4 mb porn massage fuck x videos 226297

HD Teen Sex Tube 1620 ryushare uploaded keep2share

HD Teen Sex Tube 1620

nude hot 226040 ryushare uploaded keep2share

nude hot 226040

Teens sex mania 5553 ryushare uploaded keep2share

Teens sex mania 5553

Zarina AKA: Dalida ryushare uploaded keep2share

Zarina AKA: Dalida

www xxx hd movi in 226018 ryushare uploaded keep2share

www xxx hd movi in 226018

Hd young videos 2232 ryushare uploaded keep2share

Hd young videos 2232

free download sexy xxx mp4 movies com ryushare uploaded keep2share

free download sexy xxx mp4 movies com

www xxxfree vedio sexy com 226492 ryushare uploaded keep2share

www xxxfree vedio sexy com 226492

K Craving Lips 4 – CLIP B ryushare uploaded keep2share

K Craving Lips 4 – CLIP B

College Teen Sex 6536 ryushare uploaded keep2share

College Teen Sex 6536

Norma – Welcome to fuck her for cash ryushare uploaded keep2share

Norma – Welcome to fuck her for cash

Free Porn Videos Xxx Movies Pussy Porn 3592 ryushare uploaded keep2share

Free Porn Videos Xxx Movies Pussy Porn 3592

beautifull girls fuck ryushare uploaded keep2share

beautifull girls fuck

Free Porn Videos Xxx Movies Pussy Porn 3183 ryushare uploaded keep2share

Free Porn Videos Xxx Movies Pussy Porn 3183

Candice Dare – Shopping Spree ryushare uploaded keep2share

Candice Dare – Shopping Spree

Orgy with pornstar young blonde teen ryushare uploaded keep2share

Orgy with pornstar young blonde teen

Hot download sex girls movies 225582 ryushare uploaded keep2share

Hot download sex girls movies 225582

pc verson xxx sex videos site ryushare uploaded keep2share

pc verson xxx sex videos site

Watch Teen Sex Videos HD 2305 ryushare uploaded keep2share

Watch Teen Sex Videos HD 2305

Hd quality – Teen sex video 223701 ryushare uploaded keep2share

Hd quality – Teen sex video 223701

Chelsea – First & Forever ryushare uploaded keep2share

Chelsea – First & Forever

Young Sex Movies 225932 ryushare uploaded keep2share

Young Sex Movies 225932

Young Sex Movies 4407 ryushare uploaded keep2share

Young Sex Movies 4407

Small girl having hot group sex ryushare uploaded keep2share

Small girl having hot group sex

www 18 videos lk ryushare uploaded keep2share

www 18 videos lk

zazzers com Full HD ryushare uploaded keep2share

zazzers com Full HD

Teens sex mania 5524 ryushare uploaded keep2share

Teens sex mania 5524

Report broken links / Post a comment

You must be logged in to post a comment.



General\r\nComplete name : D:HD Teens Download Porn Sex clips movies Tube.xxxSMJNCGthSMJNCGth.mp4\r\nFormat : MPEG-4\r\nFormat profile : Base Media\r\nCodec ID : isom\r\nFile size : 1.99 GiB\r\nDuration : 57mn 47s\r\nOverall bit rate mode : Variable\r\nOverall bit rate : 4 939 Kbps\r\nWriting application : Lavf52.93.0\r\n\r\nVideo\r\nID : 1\r\nFormat : AVC\r\nFormat/Info : Advanced Video Codec\r\nFormat profile : High@L3.1\r\nFormat settings, CABAC : Yes\r\nFormat settings, ReFrames : 4 frames\r\nCodec ID : avc1\r\nCodec ID/Info : Advanced Video Coding\r\nDuration : 57mn 47s\r\nBit rate : 4 800 Kbps\r\nWidth : 1 280 pixels\r\nHeight : 720 pixels\r\nDisplay aspect ratio : 16:9\r\nFrame rate mode : Constant\r\nFrame rate : 29.970 fps\r\nColor space : YUV\r\nChroma subsampling : 4:2:0\r\nBit depth : 8 bits\r\nScan type : Progressive\r\nBits/(Pixel*Frame) : 0.174\r\nStream size : 1.95 GiB (98%)\r\nWriting library : x264 core 107\r\nEncoding settings : cabac=1 / ref=3 / deblock=1:0:0 / analyse=0x3:0x113 / me=umh / subme=6 / psy=1 / psy_rd=1.00:0.00 / mixed_ref=1 / me_range=16 / chroma_me=1 / trellis=0 / 8x8dct=1 / cqm=0 / deadzone=21,11 / fast_pskip=1 / chroma_qp_offset=-2 / threads=1 / sliced_threads=0 / nr=0 / decimate=1 / interlaced=0 / constrained_intra=0 / bframes=2 / b_pyramid=2 / b_adapt=2 / b_bias=0 / direct=2 / weightb=1 / open_gop=0 / weightp=0 / keyint=30 / keyint_min=16 / scenecut=0 / intra_refresh=0 / rc_lookahead=30 / rc=abr / mbtree=1 / bitrate=4800 / ratetol=1.0 / qcomp=0.60 / qpmin=1 / qpmax=31 / qpstep=4 / ip_ratio=1.41 / aq=1:1.00\r\n\r\nAudio\r\nID : 2\r\nFormat : AAC\r\nFormat/Info : Advanced Audio Codec\r\nFormat profile : LC\r\nCodec ID : 40\r\nDuration : 57mn 47s\r\nBit rate mode : Variable\r\nBit rate : 108 Kbps\r\nChannel(s) : 2 channels\r\nChannel positions : Front: L R\r\nSampling rate : 44.1 KHz\r\nCompression mode : Lossy\r\nStream size : 44.5 MiB (2%)\r\n\r\n