Free High Quality Sex Movies 1901

Young Virgin Pussy Teen Fuck Tube 1905College Teen Sex 1898

Posted in Amateur, HD Porn, Sex Movies, Teen, Threesome | 297676 Views |


Rate this girl !!!




\r\n\r\n\r\nhttp://img102.imagetwist.com/i/05295/by2enoy582gs.jpeg\r\n\r\n Link(1.05 Gb||41:00||1280*720||WMV)



DOWNLOAD

Keep2share.cc - Uploaded.net - Openload.co - Rapidu.net


http://keep2share.cc/file/e3a193e55d08e
http://ryushare.com/j4894yj9l7hb/PMNXSBrl.rar
http://ul.to/zdzyt96v


Premium here:
uploaded.net
keep2share.cc
rapidu.net.cc


Teens related to Free High Quality Sex Movies 1901


Sweet Teen Porn – Young Porn Videos 224592 ryushare uploaded keep2share

Sweet Teen Porn – Young Porn Videos 224592

Hardcore Sex Hub 224794 ryushare uploaded keep2share

Hardcore Sex Hub 224794

sex short clips in high quality ryushare uploaded keep2share

sex short clips in high quality

Hd young videos 3757 ryushare uploaded keep2share

Hd young videos 3757

barazzar hd fuck com 226325 ryushare uploaded keep2share

barazzar hd fuck com 226325

www 8 ponr hb mp4 vibeo 226770 ryushare uploaded keep2share

www 8 ponr hb mp4 vibeo 226770

Free High Quality Sex Movies 225699 ryushare uploaded keep2share

Free High Quality Sex Movies 225699

Great Girlish Enthusiasm ryushare uploaded keep2share

Great Girlish Enthusiasm

Kleine Muschi will ficken – Desertigl ryushare uploaded keep2share

Kleine Muschi will ficken – Desertigl

Small girls and boys porn 4002 ryushare uploaded keep2share

Small girls and boys porn 4002

Young XXX Tube Videos 224995 ryushare uploaded keep2share

Young XXX Tube Videos 224995

FuckStudies.com El Storm ryushare uploaded keep2share

FuckStudies.com El Storm

Welcome To The Wild / Beata ryushare uploaded keep2share

Welcome To The Wild / Beata

Wow girls hd porn teens 5537 ryushare uploaded keep2share

Wow girls hd porn teens 5537

Young teens tube hot girls free porn video 5570 ryushare uploaded keep2share

Young teens tube hot girls free porn video 5570

Marina – YoungLibertines ryushare uploaded keep2share

Marina – YoungLibertines

big boobs teen 226172 ryushare uploaded keep2share

big boobs teen 226172

hd xxx teens virgintiy videos free download 226703 ryushare uploaded keep2share

hd xxx teens virgintiy videos free download 226703

Teen Porn XXX Tube 1280 ryushare uploaded keep2share

Teen Porn XXX Tube 1280

full 1280p xxx video 226633 ryushare uploaded keep2share

full 1280p xxx video 226633

Amateur Teen Sex 5388 ryushare uploaded keep2share

Amateur Teen Sex 5388

Free High Quality Sex Movies 225182 ryushare uploaded keep2share

Free High Quality Sex Movies 225182

Xxxsexvidoa comhd ryushare uploaded keep2share

Xxxsexvidoa comhd

HD Porn Videos 1476 ryushare uploaded keep2share

HD Porn Videos 1476

Porno movies young teens lesbian 224607 ryushare uploaded keep2share

Porno movies young teens lesbian 224607

Fat Cock vs Horny Pussies ryushare uploaded keep2share

Fat Cock vs Horny Pussies

titshed net tube 226095 ryushare uploaded keep2share

titshed net tube 226095

Teenage Fuck Clips 5122 ryushare uploaded keep2share

Teenage Fuck Clips 5122

[PublicAgent.com] Stella Cox – Big Natural Boobs Fucked in Public ryushare uploaded keep2share

[PublicAgent.com] Stella Cox – Big Natural Boobs Fucked in Public

Young XXX Tube Videos 2469 ryushare uploaded keep2share

Young XXX Tube Videos 2469

Teen Sex Videos Tube Movies 225092 ryushare uploaded keep2share

Teen Sex Videos Tube Movies 225092

xxx bf movies hd com 226686 ryushare uploaded keep2share

xxx bf movies hd com 226686

Daisy, Jasmine – Boats n Hoes ryushare uploaded keep2share

Daisy, Jasmine – Boats n Hoes

HD Teen Sex Tube 1160 ryushare uploaded keep2share

HD Teen Sex Tube 1160

Teen Sex Videos Tube Movies 225390 ryushare uploaded keep2share

Teen Sex Videos Tube Movies 225390

Report broken links / Post a comment

You must be logged in to post a comment.



General\r\nComplete name : D:HD Teens Download Porn Sex clips movies Tube.xxxPMNXSBrlPMNXSBrl.wmv\r\nFormat : Windows Media\r\nFile size : 1.05 GiB\r\nDuration : 41mn 0s\r\nOverall bit rate : 3 674 Kbps\r\nMaximum Overall bit rate : 3 628 Kbps\r\nMovie name : ALEXIS BRILL - HARD - SOFA + 2\r\nPerformer : PIERRE WOODMAN\r\nEncoded date : UTC 1970-01-01 00:00:00.000\r\nmajor_brand : qt \r\nminor_version : 537199360\r\ncompatible_brands : qt \r\ntimecode : 00:00:00:00\r\ndescription : Cette vidéo traite de ALEXIS BRILL - HARD - SOFA + 2\r\ntitle : ALEXIS BRILL - HARD - SOFA + 2\r\nWM/EncodingSettings : Lavf54.63.104\r\n\r\nVideo\r\nID : 1\r\nFormat : WMV2\r\nCodec ID : WMV2\r\nCodec ID/Info : Windows Media Video 8\r\nDescription of the codec : wmv2\r\nDuration : 41mn 0s\r\nBit rate : 3 392 Kbps\r\nWidth : 1 280 pixels\r\nHeight : 720 pixels\r\nDisplay aspect ratio : 16:9\r\nFrame rate : 25.000 fps\r\nBit depth : 8 bits\r\nBits/(Pixel*Frame) : 0.147\r\nStream size : 995 MiB (92%)\r\n\r\nAudio\r\nID : 2\r\nFormat : WMA\r\nFormat version : Version 2\r\nCodec ID : 161\r\nCodec ID/Info : Windows Media Audio\r\nDescription of the codec : Windows Media Audio V8\r\nDuration : 41mn 0s\r\nBit rate : 128 Kbps\r\nChannel(s) : 2 channels\r\nSampling rate : 44.1 KHz\r\nBit depth : 16 bits\r\nStream size : 37.5 MiB (3%)\r\n\r\n