Free Teen Porn Videos at Teen Sex Tube XXX 3958

HD Porn Teen Sex Videos 3959Teen porn movies 3950

Posted in Amateur, HD Porn, Sex Movies, Teen | 27723 Views |


Rate this girl !!!




cover

\r\n

1920x1080p / MP4 / 1.01 GB

\r\n

SCREENSHOTS:

\r\n

screens

\r\n



DOWNLOAD

Keep2share.cc - Uploaded.net - Openload.co - Rapidu.net


http://ul.to/bchck7b4/x.a.ng.14.06.22.a.n.gel.mp4
http://ryushare.com/khj9cld7jr5b/x.a.ng.14.06.22.a.n.gel.mp4
http://fileom.com/8vyrhu1syyca/x.a.ng.14.06.22.a.n.gel.mp4.html
http://k2s.cc/file/ec12b1bde9fd5/x.a.ng.14.06.22.a.n.gel.mp4


Premium here:
uploaded.net
keep2share.cc
rapidu.net.cc


Teens related to Free Teen Porn Videos at Teen Sex Tube XXX 3958


Hd teen party porn pics 226613 ryushare uploaded keep2share

Hd teen party porn pics 226613

Free Young Porn Videos XXX Teen Porn 5149 ryushare uploaded keep2share

Free Young Porn Videos XXX Teen Porn 5149

Free Porn Videos Xxx Movies Pussy Porn 85 ryushare uploaded keep2share

Free Porn Videos Xxx Movies Pussy Porn 85

HQ Sex Movies Download 225044 ryushare uploaded keep2share

HQ Sex Movies Download 225044

Teen Sex Porn Videos Free Nude Teens 3009 ryushare uploaded keep2share

Teen Sex Porn Videos Free Nude Teens 3009

Model porno sex 4345 ryushare uploaded keep2share

Model porno sex 4345

21Naturals.com Ashley ryushare uploaded keep2share

21Naturals.com Ashley

HD Teens Sex Tube Videos XxX 3546 ryushare uploaded keep2share

HD Teens Sex Tube Videos XxX 3546

High Definition Movies on HD Teen Porn XXX Tube 1854 ryushare uploaded keep2share

High Definition Movies on HD Teen Porn XXX Tube 1854

Alexis seduced by neighbour ryushare uploaded keep2share

Alexis seduced by neighbour

xxx hd art videos download 226012 ryushare uploaded keep2share

xxx hd art videos download 226012

Gianna – Real Blonde Love Doll Screws Her BF ryushare uploaded keep2share

Gianna – Real Blonde Love Doll Screws Her BF

Free Young Porn Videos XXX Teen Porn 3871 ryushare uploaded keep2share

Free Young Porn Videos XXX Teen Porn 3871

Sex with my blonde ex girlfriend ryushare uploaded keep2share

Sex with my blonde ex girlfriend

Nude Teens fucking hard 4646 ryushare uploaded keep2share

Nude Teens fucking hard 4646

Teens 1080p hd porn 4179 ryushare uploaded keep2share

Teens 1080p hd porn 4179

Teen 18 Porn XXX Clips Naked 3895 ryushare uploaded keep2share

Teen 18 Porn XXX Clips Naked 3895

www hd model sex telars hd com 226682 ryushare uploaded keep2share

www hd model sex telars hd com 226682

18 years girl xxx sex videos) 4610 ryushare uploaded keep2share

18 years girl xxx sex videos) 4610

The best Teen sex 2350 ryushare uploaded keep2share

The best Teen sex 2350

Good Teen Tube Sexy Young Naked Girls Movies 2535 ryushare uploaded keep2share

Good Teen Tube Sexy Young Naked Girls Movies 2535

Kaylee Haze – Wet Pussy Play ryushare uploaded keep2share

Kaylee Haze – Wet Pussy Play

www hd video 18 xxx 226637 ryushare uploaded keep2share

www hd video 18 xxx 226637

Hot download sex girls movies 224263 ryushare uploaded keep2share

Hot download sex girls movies 224263

HD Teen Sex Tube 5272 ryushare uploaded keep2share

HD Teen Sex Tube 5272

Teen Sex Movies 1891 ryushare uploaded keep2share

Teen Sex Movies 1891

Hot Teen Sex 2164 ryushare uploaded keep2share

Hot Teen Sex 2164

purn mania 226696 ryushare uploaded keep2share

purn mania 226696

HD sex movies downloads 3688 ryushare uploaded keep2share

HD sex movies downloads 3688

Watch Teen Sex Videos HD 2205 ryushare uploaded keep2share

Watch Teen Sex Videos HD 2205

Hardcore sex videos in the high definition quality 1260 ryushare uploaded keep2share

Hardcore sex videos in the high definition quality 1260

breezer hd porn video 226339 ryushare uploaded keep2share

breezer hd porn video 226339

Wow girls downloads hd 225203 ryushare uploaded keep2share

Wow girls downloads hd 225203

Free Porn Videos Xxx Movies Pussy Porn 225004 ryushare uploaded keep2share

Free Porn Videos Xxx Movies Pussy Porn 225004

Nude Teens fucking hard 5262 ryushare uploaded keep2share

Nude Teens fucking hard 5262

Report broken links / Post a comment

You must be logged in to post a comment.



General\r\nComplete name : D:hd tube amateur porn young girls sex direct download online movies clips\r\nryushare.com uploaded.net keep2share.cc fileom.com streamcloud.eu allmyvideos.net ul.to download porn movies clipx.a.ng.14.06.22.a.n.gel.mp4\r\nFormat : MPEG-4\r\nFormat profile : Base Media\r\nCodec ID : isom\r\nFile size : 1.01 GiB\r\nDuration : 20mn 19s\r\nOverall bit rate : 7 116 Kbps\r\nMovie name : Downloaded from RARBG.COM\r\nPerformer : Royal-Cash.com\r\nComposer : Royal-Cash.com\r\nWriting application : Lavf55.37.102\r\nCopyright : Royal-Cash.com\r\nComment : Downloaded from RARBG.COM\r\n\r\nVideo\r\nID : 1\r\nFormat : AVC\r\nFormat/Info : Advanced Video Codec\r\nFormat profile : High@L4.0\r\nFormat settings, CABAC : Yes\r\nFormat settings, ReFrames : 3 frames\r\nCodec ID : avc1\r\nCodec ID/Info : Advanced Video Coding\r\nDuration : 20mn 17s\r\nBit rate : 7 000 Kbps\r\nWidth : 1 920 pixels\r\nHeight : 1 080 pixels\r\nDisplay aspect ratio : 16:9\r\nFrame rate mode : Constant\r\nFrame rate : 25.000 fps\r\nColor space : YUV\r\nChroma subsampling : 4:2:0\r\nBit depth : 8 bits\r\nScan type : Progressive\r\nBits/(Pixel*Frame) : 0.135\r\nStream size : 1 018 MiB (98%)\r\nWriting library : x264 core 1191.0\r\nEncoding settings : cabac=1 / ref=3 / deblock=1:0:0 / analyse=0x3:0x113 / me=hex / subme=7 / psy=1 / psy_rd=1.00:0.00 / mixed_ref=1 / me_range=16 / chroma_me=1 / trellis=1 / 8x8dct=1 / cqm=0 / deadzone=21,11 / fast_pskip=1 / chroma_qp_offset=-2 / threads=24 / sliced_threads=0 / nr=0 / decimate=1 / interlaced=0 / bluray_compat=0 / constrained_intra=0 / bframes=0 / weightp=2 / keyint=100 / keyint_min=10 / scenecut=40 / intra_refresh=0 / rc_lookahead=40 / rc=abr / mbtree=1 / bitrate=7000 / ratetol=1.0 / qcomp=0.60 / qpmin=0 / qpmax=69 / qpstep=4 / ip_ratio=1.40 / aq=1:1.00\r\n\r\nAudio\r\nID : 2\r\nFormat : AAC\r\nFormat/Info : Advanced Audio Codec\r\nFormat profile : LC\r\nCodec ID : 40\r\nDuration : 20mn 19s\r\nBit rate mode : Constant\r\nBit rate : 107 Kbps\r\nChannel(s) : 2 channels\r\nChannel positions : Front: L R\r\nSampling rate : 44.1 KHz\r\nCompression mode : Lossy\r\nStream size : 15.6 MiB (2%)\r\n\r\n\r\nRAPIDGATOR / UPLOADED / UPLOADABLE / KEEP2SHARE\r\nUPLOADED / RYUSHARE / FILEOM / KEEP2SHARE\r\n\r\nhd tube amateur porn young girls sex direct download online movies clips\r\nryushare.com uploaded.net keep2share.cc fileom.com streamcloud.eu allmyvideos.net ul.to download porn movies clip