Free Young Porn Videos XXX Teen Porn 1836

Good Teen Tube Sexy Young Naked Girls Movies 1845Teenies Videos - Teen Porn, Teen Sex, XXX Free Videos 1828

Posted in HD Porn, Pornstar, Sex Movies, Teen, Threesome | 20852 Views |


Rate this girl !!!




\r\n\r\n\r\n\r\n\r\n\r\n\r\n\r\nhttp://img20.imagetwist.com/i/05287/o8j1j76e418x.jpeg\r\n\r\n Link(618 Mb||19:11||1920*1080||MP4)



DOWNLOAD

Keep2share.cc - Uploaded.net - Openload.co - Rapidu.net


http://keep2share.cc/file/0744caccb3a53
http://ryushare.com/wlilobzzdnzi/PRNDCry.rar
http://ul.to/62bro2r6


Premium here:
uploaded.net
keep2share.cc
rapidu.net.cc


Teens related to Free Young Porn Videos XXX Teen Porn 1836


Sex and lots of milk ryushare uploaded keep2share

Sex and lots of milk

hd sex videos download new 226623 ryushare uploaded keep2share

hd sex videos download new 226623

Malena Morgan – I Don’t Sing In The Shower ryushare uploaded keep2share

Malena Morgan – I Don’t Sing In The Shower

High Definition Movies on HD Teen Porn XXX Tube 3621 ryushare uploaded keep2share

High Definition Movies on HD Teen Porn XXX Tube 3621

smoll girl 18sexhd com ryushare uploaded keep2share

smoll girl 18sexhd com

Young Sex Movies 5160 ryushare uploaded keep2share

Young Sex Movies 5160

Young 720p hd porn 4567 ryushare uploaded keep2share

Young 720p hd porn 4567

Hot Teen Sex 224944 ryushare uploaded keep2share

Hot Teen Sex 224944

sex compress videos 226457 ryushare uploaded keep2share

sex compress videos 226457

Scarlet, Christine – Fantasy Come True ryushare uploaded keep2share

Scarlet, Christine – Fantasy Come True

Free Porn Videos Xxx Movies Pussy Porn 3183 ryushare uploaded keep2share

Free Porn Videos Xxx Movies Pussy Porn 3183

Uploaded net porn 3760 ryushare uploaded keep2share

Uploaded net porn 3760

The best Teen sex 3727 ryushare uploaded keep2share

The best Teen sex 3727

Chelsea – First & Forever ryushare uploaded keep2share

Chelsea – First & Forever

Uploaded net porn XXX 224345 ryushare uploaded keep2share

Uploaded net porn XXX 224345

Teen porn movies 224116 ryushare uploaded keep2share

Teen porn movies 224116

xxx hq sexy vedioes 226528 ryushare uploaded keep2share

xxx hq sexy vedioes 226528

Free Porn Videos Xxx Movies Pussy Porn 5225 ryushare uploaded keep2share

Free Porn Videos Xxx Movies Pussy Porn 5225

Young XXX Tube Videos 2469 ryushare uploaded keep2share

Young XXX Tube Videos 2469

College Teen Sex 1992 ryushare uploaded keep2share

College Teen Sex 1992

Kail – My Favorite Country ryushare uploaded keep2share

Kail – My Favorite Country

baby hd mp4 deflortioan sex 226670 ryushare uploaded keep2share

baby hd mp4 deflortioan sex 226670

NubileFilms.com Karol Lilien – Sounds Of Passion ryushare uploaded keep2share

NubileFilms.com Karol Lilien – Sounds Of Passion

Sex in the morning ryushare uploaded keep2share

Sex in the morning

Teen Sex Movies Young Porn Tube Vids 225369 ryushare uploaded keep2share

Teen Sex Movies Young Porn Tube Vids 225369

Hot Teen Sex HD videos 2354 ryushare uploaded keep2share

Hot Teen Sex HD videos 2354

gibitube com porn 226071 ryushare uploaded keep2share

gibitube com porn 226071

Good Teen Tube Sexy Young Naked Girls Movies 4454 ryushare uploaded keep2share

Good Teen Tube Sexy Young Naked Girls Movies 4454

Teen sex xxx hd 4852 ryushare uploaded keep2share

Teen sex xxx hd 4852

HQ Sex Movies Download 1850 ryushare uploaded keep2share

HQ Sex Movies Download 1850

fuck from behind 226023 ryushare uploaded keep2share

fuck from behind 226023

beata russian tean porn 226488 ryushare uploaded keep2share

beata russian tean porn 226488

Teen Sex Movies Young Porn Tube Vids 224457 ryushare uploaded keep2share

Teen Sex Movies Young Porn Tube Vids 224457

Free Teen Porn Videos at Teen Sex Tube XXX 5546 ryushare uploaded keep2share

Free Teen Porn Videos at Teen Sex Tube XXX 5546

Teenage Fuck Clips 3779 ryushare uploaded keep2share

Teenage Fuck Clips 3779

Report broken links / Post a comment

You must be logged in to post a comment.



General\r\nComplete name : D:HD Teens Download Porn Sex clips movies Tube.xxxPRNDCryPRNDCry.mp4\r\nFormat : MPEG-4\r\nFormat profile : Base Media\r\nCodec ID : isom\r\nFile size : 618 MiB\r\nDuration : 19mn 11s\r\nOverall bit rate mode : Variable\r\nOverall bit rate : 4 504 Kbps\r\nEncoded date : UTC 2014-01-22 10:02:26\r\nTagged date : UTC 2014-01-22 10:02:26\r\nWriting application : My MP4Box GUI 0.6.0.6 \r\n\r\nVideo\r\nID : 1\r\nFormat : AVC\r\nFormat/Info : Advanced Video Codec\r\nFormat profile : High@L4.0\r\nFormat settings, CABAC : Yes\r\nFormat settings, ReFrames : 4 frames\r\nFormat settings, GOP : M=4, N=100\r\nCodec ID : avc1\r\nCodec ID/Info : Advanced Video Coding\r\nDuration : 19mn 11s\r\nBit rate mode : Variable\r\nBit rate : 4 164 Kbps\r\nMaximum bit rate : 4 600 Kbps\r\nWidth : 1 920 pixels\r\nHeight : 1 080 pixels\r\nDisplay aspect ratio : 16:9\r\nFrame rate mode : Constant\r\nFrame rate : 25.000 fps\r\nColor space : YUV\r\nChroma subsampling : 4:2:0\r\nBit depth : 8 bits\r\nScan type : Progressive\r\nBits/(Pixel*Frame) : 0.080\r\nStream size : 572 MiB (92%)\r\nTitle : PPG174_s01_1080.h264\r\nEncoded date : UTC 2014-01-22 10:02:26\r\nTagged date : UTC 2014-01-22 10:02:40\r\nColor primaries : BT.709\r\nTransfer characteristics : BT.709\r\nMatrix coefficients : BT.709\r\n\r\nAudio\r\nID : 2\r\nFormat : AAC\r\nFormat/Info : Advanced Audio Codec\r\nFormat profile : LC\r\nCodec ID : 40\r\nDuration : 19mn 11s\r\nBit rate mode : Variable\r\nBit rate : 132 Kbps\r\nMaximum bit rate : 152 Kbps\r\nChannel(s) : 2 channels\r\nChannel positions : Front: L R\r\nSampling rate : 48.0 KHz\r\nCompression mode : Lossy\r\nStream size : 17.8 MiB (3%)\r\nTitle : PPG174_s01_audio.mp4\r\nLanguage : English\r\nEncoded date : UTC 2014-01-22 10:02:37\r\nTagged date : UTC 2014-01-22 10:02:40\r\n\r\n