Fucked by two cocks in all holes

Couple of angelsHot amateur

Posted in Amateur, HD Porn, Sex Movies, Teen, Threesome | 6014 Views |


Rate this girl !!!


(16 raters, 53 scores, average: 3.31 out of 5, 66.25%)

2.jpg

Fucked by two cocks in all holes

Link(763 Mb||23:27||1920*1080||MP4)



DOWNLOAD

Keep2share.cc - Uploaded.net - Openload.co - Rapidu.net



Premium here:
uploaded.net
keep2share.cc
rapidu.net.cc

Teens related to Fucked by two cocks in all holes


hot teen virgin broked pussysex pic ryushare uploaded keep2share

hot teen virgin broked pussysex pic

Teen Tits Tube, Young Girls Porn Videos 225965 ryushare uploaded keep2share

Teen Tits Tube, Young Girls Porn Videos 225965

Adult Hardcore XXX Sex Videos 1705 ryushare uploaded keep2share

Adult Hardcore XXX Sex Videos 1705

Small girls and boys porn 4062 ryushare uploaded keep2share

Small girls and boys porn 4062

Fucking in the shower with young blonde ryushare uploaded keep2share

Fucking in the shower with young blonde

www hd brazzers sex in com 226593 ryushare uploaded keep2share

www hd brazzers sex in com 226593

baby hd mp4 deflortioan sex 226670 ryushare uploaded keep2share

baby hd mp4 deflortioan sex 226670

HD sex movies downloads 3974 ryushare uploaded keep2share

HD sex movies downloads 3974

sex vedios yang grls end boys ryushare uploaded keep2share

sex vedios yang grls end boys

Teen porn xxx 5290 ryushare uploaded keep2share

Teen porn xxx 5290

First time Sexual Films 18 sex xxx 224473 ryushare uploaded keep2share

First time Sexual Films 18 sex xxx 224473

Small girls and boys porn 4478 ryushare uploaded keep2share

Small girls and boys porn 4478

K Three Teasing Tongues 5 -B ryushare uploaded keep2share

K Three Teasing Tongues 5 -B

HD Porn Teen Sex Videos 2783 ryushare uploaded keep2share

HD Porn Teen Sex Videos 2783

Wow Porn Movies download) 5153 ryushare uploaded keep2share

Wow Porn Movies download) 5153

Anal Awakening ryushare uploaded keep2share

Anal Awakening

Young legal porn clips 3026 ryushare uploaded keep2share

Young legal porn clips 3026

Hd quality – Teen sex video 3481 ryushare uploaded keep2share

Hd quality – Teen sex video 3481

Teen porn movies 1195 ryushare uploaded keep2share

Teen porn movies 1195

proanstar sex video HD danlowd ryushare uploaded keep2share

proanstar sex video HD danlowd

High Definition Movies on HD 4675 ryushare uploaded keep2share

High Definition Movies on HD 4675

Teen porn movies 3950 ryushare uploaded keep2share

Teen porn movies 3950

Uploaded net porn 4879 ryushare uploaded keep2share

Uploaded net porn 4879

K Three Teasing Tongues 4 ryushare uploaded keep2share

K Three Teasing Tongues 4

18YearsOld.com Megan Rain – Playing Hooky ryushare uploaded keep2share

18YearsOld.com Megan Rain – Playing Hooky

Hd young videos 1872 ryushare uploaded keep2share

Hd young videos 1872

Porno movies young teens lesbian 225217 ryushare uploaded keep2share

Porno movies young teens lesbian 225217

Model porno sex 4099 ryushare uploaded keep2share

Model porno sex 4099

www free downloade hd world sex com 226164 ryushare uploaded keep2share

www free downloade hd world sex com 226164

Porn teen hd downloads 224098 ryushare uploaded keep2share

Porn teen hd downloads 224098

pornstar fucked Connie carter 226393 ryushare uploaded keep2share

pornstar fucked Connie carter 226393

Teen porn movies 2618 ryushare uploaded keep2share

Teen porn movies 2618

Alyona – No Mercy For Your Ass ryushare uploaded keep2share

Alyona – No Mercy For Your Ass

HD Porn Videos 5509 ryushare uploaded keep2share

HD Porn Videos 5509

Nancey – Dreams Come To Life ryushare uploaded keep2share

Nancey – Dreams Come To Life

Comments (2)

only 16 years teen videos

Report broken links / Post a comment

You must be logged in to post a comment.



General
Complete name : D:JDdescargasPRTBGbvPRTBGbv.mp4
Format : MPEG-4
Format profile : Base Media
Codec ID : isom
File size : 763 MiB
Duration : 23mn 27s
Overall bit rate mode : Variable
Overall bit rate : 4 550 Kbps
Encoded date : UTC 2014-01-10 08:56:20
Tagged date : UTC 2014-01-10 08:56:20
Writing application : My MP4Box GUI 0.6.0.6

Video
ID : 1
Format : AVC
Format/Info : Advanced Video Codec
Format profile : High@L4.0
Format settings, CABAC : Yes
Format settings, ReFrames : 4 frames
Format settings, GOP : M=4, N=100
Codec ID : avc1
Codec ID/Info : Advanced Video Coding
Duration : 23mn 27s
Bit rate mode : Variable
Bit rate : 4 208 Kbps
Maximum bit rate : 4 600 Kbps
Width : 1 920 pixels
Height : 1 080 pixels
Display aspect ratio : 16:9
Frame rate mode : Constant
Frame rate : 25.000 fps
Color space : YUV
Chroma subsampling : 4:2:0
Bit depth : 8 bits
Scan type : Progressive
Bits/(Pixel*Frame) : 0.081
Stream size : 706 MiB (92%)
Title : SPE089_s02_1080.h264
Encoded date : UTC 2014-01-10 08:56:20
Tagged date : UTC 2014-01-10 08:56:40
Color primaries : BT.709
Transfer characteristics : BT.709
Matrix coefficients : BT.709

Audio
ID : 2
Format : AAC
Format/Info : Advanced Audio Codec
Format profile : LC
Codec ID : 40
Duration : 23mn 27s
Bit rate mode : Variable
Bit rate : 129 Kbps
Maximum bit rate : 164 Kbps
Channel(s) : 2 channels
Channel positions : Front: L R
Sampling rate : 48.0 KHz
Compression mode : Lossy
Stream size : 21.7 MiB (3%)
Title : SPE089_s02_audio.mp4
Language : English
Encoded date : UTC 2014-01-10 08:56:38
Tagged date : UTC 2014-01-10 08:56:40