[FuckStudies.com] Iren

Silvie Luca – Give And TakeStella Cox – No Panties

Posted in Amateur, HD Porn, Sex Movies, Teen | 24301 Views |


Rate this girl !!!


(21 raters, 77 scores, average: 3.67 out of 5, 73.33%)

[FuckStudies.com] Iren

cover

1920x1080p / MP4 / 1.22 GB

SCREENSHOTS:

screens



DOWNLOAD

Keep2share.cc - Uploaded.net - Openload.co - Rapidu.net



Premium here:
uploaded.net
keep2share.cc
rapidu.net.cc

Incoming search terms:

  • TV-MA RU Porn
  • devka porno hd
  • videodevka tv


Teens related to [FuckStudies.com] Iren


Hardcore sex videos in the high definition quality 1804 ryushare uploaded keep2share

Hardcore sex videos in the high definition quality 1804

Free Teen Porn Videos at Teen Sex Tube XXX 1416 ryushare uploaded keep2share

Free Teen Porn Videos at Teen Sex Tube XXX 1416

Chelsea – First & Forever ryushare uploaded keep2share

Chelsea – First & Forever

Free High Quality Sex Movies 4375 ryushare uploaded keep2share

Free High Quality Sex Movies 4375

hسكس ryushare uploaded keep2share

hسكس

Hot Teen Sex 4722 ryushare uploaded keep2share

Hot Teen Sex 4722

www hdworld xxx video com ryushare uploaded keep2share

www hdworld xxx video com

Hardcore Sex Hub 4176 ryushare uploaded keep2share

Hardcore Sex Hub 4176

Teen Porn XXX Tube 1144 ryushare uploaded keep2share

Teen Porn XXX Tube 1144

download pc porno movie ryushare uploaded keep2share

download pc porno movie

Hot Teen Sex 224463 ryushare uploaded keep2share

Hot Teen Sex 224463

Free High Quality Sex Movies 1698 ryushare uploaded keep2share

Free High Quality Sex Movies 1698

Sweet Teen Porn – Young Porn Videos 2093 ryushare uploaded keep2share

Sweet Teen Porn – Young Porn Videos 2093

Ivana Sugar – Lovely arches ryushare uploaded keep2share

Ivana Sugar – Lovely arches

bd hd hq xxx pron video ryushare uploaded keep2share

bd hd hq xxx pron video

Nude Teens fucking hard 2189 ryushare uploaded keep2share

Nude Teens fucking hard 2189

Jungle Fever – Beata, Anjelica ryushare uploaded keep2share

Jungle Fever – Beata, Anjelica

Creampie-Angels.com Sheri Vi ryushare uploaded keep2share

Creampie-Angels.com Sheri Vi

Teens 1080p hd porn 3561 ryushare uploaded keep2share

Teens 1080p hd porn 3561

hd hq bf xxx sex downliad ryushare uploaded keep2share

hd hq bf xxx sex downliad

Teenage Fuck Clips 2643 ryushare uploaded keep2share

Teenage Fuck Clips 2643

[TeensLikeItBig.com / Brazzers.com] Layla London (My Stepdaughter Loves Porn / 30.11.2016) [2016 г., Big Naturals,Big Tits,Big Tits Worship,Brunette,Cheating,Couples Fantasies,Natural Tits,Stepdaughter, 1080p] ryushare uploaded keep2share

[TeensLikeItBig.com / Brazzers.com] Layla London (My Stepdaughter Loves Porn / 30.11.2016) [2016 г., Big Naturals,Big Tits,Big Tits Worship,Brunette,Cheating,Couples Fantasies,Natural Tits,Stepdaughter, 1080p]

xxx fuking teens pics 2014 ryushare uploaded keep2share

xxx fuking teens pics 2014

Sexy hd world com 226166 ryushare uploaded keep2share

Sexy hd world com 226166

x-art no turning back part two video 226470 ryushare uploaded keep2share

x-art no turning back part two video 226470

Watch Teen Sex Videos HD 2205 ryushare uploaded keep2share

Watch Teen Sex Videos HD 2205

Porno movies young teens lesbian 5372 ryushare uploaded keep2share

Porno movies young teens lesbian 5372

Teens in Porno young porn videos and free teen sex 5409 ryushare uploaded keep2share

Teens in Porno young porn videos and free teen sex 5409

wow xxxvideoshd ryushare uploaded keep2share

wow xxxvideoshd

Free Porn Videos Xxx Movies Pussy Porn 1568 ryushare uploaded keep2share

Free Porn Videos Xxx Movies Pussy Porn 1568

HD sex movies downloads 3688 ryushare uploaded keep2share

HD sex movies downloads 3688

Teenies Videos – Teen Porn, Teen Sex, XXX Free Videos 5072 ryushare uploaded keep2share

Teenies Videos – Teen Porn, Teen Sex, XXX Free Videos 5072

hd yes xxxporn ryushare uploaded keep2share

hd yes xxxporn

Teen Sex Movies 3822 ryushare uploaded keep2share

Teen Sex Movies 3822

Porn party teen girls 225121 ryushare uploaded keep2share

Porn party teen girls 225121

Report broken links / Post a comment

You must be logged in to post a comment.



General
Complete name : D:[FuckStudies.com] Iren.mp4
Format : MPEG-4
Format profile : Base Media
Codec ID : isom
File size : 1.22 GiB
Duration : 21mn 31s
Overall bit rate : 8 135 Kbps
Movie name : RARBG.COM - FuckStudies.14.08.07.Iren.XXX.1080p.MP4-KTR
Performer : Royal-Cash.com
Composer : Royal-Cash.com
Writing application : Lavf55.37.102
Copyright : Royal-Cash.com
Comment : RARBG.COM - FuckStudies.14.08.07.Iren.XXX.1080p.MP4-KTR

Video
ID : 1
Format : AVC
Format/Info : Advanced Video Codec
Format profile : High@L4.0
Format settings, CABAC : Yes
Format settings, ReFrames : 3 frames
Format settings, GOP : M=1, N=100
Codec ID : avc1
Codec ID/Info : Advanced Video Coding
Duration : 21mn 31s
Bit rate : 8 000 Kbps
Width : 1 920 pixels
Height : 1 080 pixels
Display aspect ratio : 16:9
Frame rate mode : Constant
Frame rate : 25.000 fps
Color space : YUV
Chroma subsampling : 4:2:0
Bit depth : 8 bits
Scan type : Progressive
Bits/(Pixel*Frame) : 0.154
Stream size : 1.21 GiB (99%)
Writing library : x264 core 1191.0
Encoding settings : cabac=1 / ref=3 / deblock=1:0:0 / analyse=0x3:0x113 / me=hex / subme=7 / psy=1 / psy_rd=1.00:0.00 / mixed_ref=1 / me_range=16 / chroma_me=1 / trellis=1 / 8x8dct=1 / cqm=0 / deadzone=21,11 / fast_pskip=1 / chroma_qp_offset=-2 / threads=24 / sliced_threads=0 / nr=0 / decimate=1 / interlaced=0 / bluray_compat=0 / constrained_intra=0 / bframes=0 / weightp=2 / keyint=100 / keyint_min=10 / scenecut=40 / intra_refresh=0 / rc_lookahead=40 / rc=abr / mbtree=1 / bitrate=8000 / ratetol=1.0 / qcomp=0.60 / qpmin=0 / qpmax=69 / qpstep=4 / ip_ratio=1.40 / aq=1:1.00

Audio
ID : 2
Format : AAC
Format/Info : Advanced Audio Codec
Format profile : LC
Codec ID : 40
Duration : 21mn 31s
Bit rate mode : Constant
Bit rate : 116 Kbps
Channel(s) : 2 channels
Channel positions : Front: L R
Sampling rate : 44.1 KHz
Compression mode : Lossy
Stream size : 17.8 MiB (1%)