Girls do porn downloads 3844

Uploaded net porn 3849XXX young porn sex 3841

Posted in Amateur, HD Porn, Sex Movies, Teen, Threesome | 9679 Views |


Rate this girl !!!




cover

\r\n

1280x720p / MP4 / 436.1 MB

\r\n

UPLOADED / RYUSHARE / FILEOM / KEEP2SHARE

\r\n \r\n

SCREENSHOTS:

\r\n

screens

\r\n



DOWNLOAD

Keep2share.cc - Uploaded.net - Openload.co - Rapidu.net


http://ryushare.com/6es8q59mcfr3/M0lly_19_06_2014.mp4
http://ul.to/nucmzimy/M0lly_19_06_2014.mp4
http://fileom.com/x22vk83e01n8/M0lly_19_06_2014.mp4.html
http://k2s.cc/file/33e72a56465c6/M0lly_19_06_2014.mp4


Premium here:
uploaded.net
keep2share.cc
rapidu.net.cc


Teens related to Girls do porn downloads 3844


Delectable Daydreams (1080p) ryushare uploaded keep2share

Delectable Daydreams (1080p)

K Craving Lips 3 – A ryushare uploaded keep2share

K Craving Lips 3 – A

First time Sexual Films 18 sex xxx 5107 ryushare uploaded keep2share

First time Sexual Films 18 sex xxx 5107

tits free ryushare uploaded keep2share

tits free

Model porno sex 3485 ryushare uploaded keep2share

Model porno sex 3485

[POVD.com] Kendall Kayden – Shower Show ryushare uploaded keep2share

[POVD.com] Kendall Kayden – Shower Show

HD Teen Sex Tube 223714 ryushare uploaded keep2share

HD Teen Sex Tube 223714

August Ames – Work It Out ryushare uploaded keep2share

August Ames – Work It Out

Teen Porn XXX Tube 1437 ryushare uploaded keep2share

Teen Porn XXX Tube 1437

Young Sex Movies 2411 ryushare uploaded keep2share

Young Sex Movies 2411

teen porno sites xxx ryushare uploaded keep2share

teen porno sites xxx

[FTVGirls.com] 2016-10-07 – Eva & Violet Starr – College Girls In Love [Lesbo, Toys, Fisting, 1080p] ryushare uploaded keep2share

[FTVGirls.com] 2016-10-07 – Eva & Violet Starr – College Girls In Love [Lesbo, Toys, Fisting, 1080p]

YoungLegalPorn Bella Baby And Carla Cox Advanced Bonking ryushare uploaded keep2share

YoungLegalPorn Bella Baby And Carla Cox Advanced Bonking

Teenies Videos – Teen Porn, Teen Sex, XXX Free Videos 225560 ryushare uploaded keep2share

Teenies Videos – Teen Porn, Teen Sex, XXX Free Videos 225560

Teen porn movies 224770 ryushare uploaded keep2share

Teen porn movies 224770

Teen Sex Videos Tube Movies 225805 ryushare uploaded keep2share

Teen Sex Videos Tube Movies 225805

Barezzers sexhd com 226100 ryushare uploaded keep2share

Barezzers sexhd com 226100

Fat Cock vs Horny Pussies ryushare uploaded keep2share

Fat Cock vs Horny Pussies

Nubiles.net Olivia Devine – Outdoor Orgasm ryushare uploaded keep2share

Nubiles.net Olivia Devine – Outdoor Orgasm

butt xxx hd move 226474 ryushare uploaded keep2share

butt xxx hd move 226474

21Naturals.com Jenny Glam – Everlating memories ryushare uploaded keep2share

21Naturals.com Jenny Glam – Everlating memories

www sex video pc porn 226242 ryushare uploaded keep2share

www sex video pc porn 226242

Free Porn Videos Xxx Movies Pussy Porn 5225 ryushare uploaded keep2share

Free Porn Videos Xxx Movies Pussy Porn 5225

download teen hd porn video small size ryushare uploaded keep2share

download teen hd porn video small size

Double Tease – All Sex ryushare uploaded keep2share

Double Tease – All Sex

Wow porn tube movies 3516 ryushare uploaded keep2share

Wow porn tube movies 3516

HD porn teen downloads 2662 ryushare uploaded keep2share

HD porn teen downloads 2662

Teens in Porno young porn videos and free teen sex 5650 ryushare uploaded keep2share

Teens in Porno young porn videos and free teen sex 5650

Hot Teen Sex HD videos 225047 ryushare uploaded keep2share

Hot Teen Sex HD videos 225047

Teen porn movies 4620 ryushare uploaded keep2share

Teen porn movies 4620

Chinara, Peachy – Cum And Be Happy ryushare uploaded keep2share

Chinara, Peachy – Cum And Be Happy

Teenies Videos – Teen Porn, Teen Sex, XXX Free Videos 1828 ryushare uploaded keep2share

Teenies Videos – Teen Porn, Teen Sex, XXX Free Videos 1828

Hardcore sex videos in the high definition quality 224715 ryushare uploaded keep2share

Hardcore sex videos in the high definition quality 224715

Yours Forever – Lisa ryushare uploaded keep2share

Yours Forever – Lisa

18YearsOld.com Megan Rain – Playing Hooky ryushare uploaded keep2share

18YearsOld.com Megan Rain – Playing Hooky

Report broken links / Post a comment

You must be logged in to post a comment.



General\r\nComplete name : D:hd tube amateur porn young girls sex direct download online movies clips\r\nryushare.com uploaded.net keep2share.cc fileom.com streamcloud.eu allmyvideos.net ul.to download porn movies clipSYGF_Molly_19_06_2014.mp4\r\nFormat : MPEG-4\r\nFormat profile : Base Media\r\nCodec ID : isom\r\nFile size : 436 MiB\r\nDuration : 22mn 11s\r\nOverall bit rate mode : Variable\r\nOverall bit rate : 2 747 Kbps\r\nEncoded date : UTC 1970-01-01 00:00:00\r\nTagged date : UTC 1970-01-01 00:00:00\r\nWriting application : Lavf52.111.0\r\nComment : Exclusive for PornoReleases.com\r\n\r\nVideo\r\nID : 1\r\nFormat : AVC\r\nFormat/Info : Advanced Video Codec\r\nFormat profile : High@L3.1\r\nFormat settings, CABAC : Yes\r\nFormat settings, ReFrames : 4 frames\r\nCodec ID : avc1\r\nCodec ID/Info : Advanced Video Coding\r\nDuration : 22mn 11s\r\nBit rate : 2 633 Kbps\r\nWidth : 1 280 pixels\r\nHeight : 720 pixels\r\nDisplay aspect ratio : 16:9\r\nFrame rate mode : Constant\r\nFrame rate : 25.000 fps\r\nColor space : YUV\r\nChroma subsampling : 4:2:0\r\nBit depth : 8 bits\r\nScan type : Progressive\r\nBits/(Pixel*Frame) : 0.114\r\nStream size : 418 MiB (96%)\r\nWriting library : x264 core 116\r\nEncoding settings : cabac=1 / ref=3 / deblock=1:0:0 / analyse=0x3:0x113 / me=hex / subme=7 / psy=1 / psy_rd=1.00:0.00 / mixed_ref=1 / me_range=16 / chroma_me=1 / trellis=0 / 8x8dct=1 / cqm=0 / deadzone=21,11 / fast_pskip=1 / chroma_qp_offset=-2 / threads=16 / sliced_threads=0 / nr=0 / decimate=1 / interlaced=0 / bluray_compat=0 / constrained_intra=0 / bframes=8 / b_pyramid=2 / b_adapt=1 / b_bias=0 / direct=1 / weightb=1 / open_gop=0 / weightp=2 / keyint=50 / keyint_min=25 / scenecut=40 / intra_refresh=0 / rc_lookahead=40 / rc=crf / mbtree=1 / crf=20.0 / qcomp=0.60 / qpmin=10 / qpmax=51 / qpstep=4 / ip_ratio=1.41 / aq=1:1.00\r\nLanguage : Russian\r\nEncoded date : UTC 1970-01-01 00:00:00\r\nTagged date : UTC 1970-01-01 00:00:00\r\n\r\nAudio\r\nID : 2\r\nFormat : AAC\r\nFormat/Info : Advanced Audio Codec\r\nFormat profile : LC\r\nCodec ID : 40\r\nDuration : 22mn 11s\r\nBit rate mode : Variable\r\nBit rate : 110 Kbps\r\nMaximum bit rate : 128 Kbps\r\nChannel(s) : 2 channels\r\nChannel positions : Front: L R\r\nSampling rate : 44.1 KHz\r\nCompression mode : Lossy\r\nStream size : 17.4 MiB (4%)\r\nLanguage : Russian\r\nEncoded date : UTC 1970-01-01 00:00:00\r\nTagged date : UTC 1970-01-01 00:00:00\r\n\r\n\r\nRAPIDGATOR / UPLOADED / UPLOADABLE / KEEP2SHARE\r\nUPLOADED / RYUSHARE / FILEOM / KEEP2SHARE\r\n\r\nhd tube amateur porn young girls sex direct download online movies clips\r\nryushare.com uploaded.net keep2share.cc fileom.com streamcloud.eu allmyvideos.net ul.to download porn movies clip\r\n