Hardcore Sex Hub 1355

HD Porn Video 1358HD Porn Video 1352

Posted in Amateur, HD Porn, Sex Movies, Teen | 7890 Views |


Rate this girl !!!


(27 raters, 101 scores, average: 3.74 out of 5, 74.81%)

\r\n\r\nhttp://img102.imagetwist.com/i/05199/ls0k5mg3vu8l.jpeg\r\n\r\n Link(665 Mb||12:09||1920*1080||WMV)



DOWNLOAD

Keep2share.cc - Uploaded.net - Openload.co - Rapidu.net


http://ul.to/owevjfh6
http://ryushare.com/jdvwdd82pc4i/TSNGDCrm.rar
http://keep2share.cc/file/5e88b099ca81a


Premium here:
uploaded.net
keep2share.cc
rapidu.net.cc

Incoming search terms:

  • wwwxvifeo com
  • wwwxvifeo
  • 1355 sex xxx hd
  • 2mintes video9 com
  • sexhub nxxx
  • wwwxvifeo vom


Teens related to Hardcore Sex Hub 1355


HD Teen Sex Tube 1160 ryushare uploaded keep2share

HD Teen Sex Tube 1160

College Teen Sex 5458 ryushare uploaded keep2share

College Teen Sex 5458

Watch Teen Sex Videos HD 2098 ryushare uploaded keep2share

Watch Teen Sex Videos HD 2098

VIOLA BAILEY’S and BEATA UNDINE – HARD – BED + 1 ryushare uploaded keep2share

VIOLA BAILEY’S and BEATA UNDINE – HARD – BED + 1

Www teen77 com free dawonlorld ryushare uploaded keep2share

Www teen77 com free dawonlorld

Sara Luvv – Dorm Room Invitation ryushare uploaded keep2share

Sara Luvv – Dorm Room Invitation

Teen 18 Porn XXX Clips Naked 3113 ryushare uploaded keep2share

Teen 18 Porn XXX Clips Naked 3113

Fucking outdoors ryushare uploaded keep2share

Fucking outdoors

First time Sexual Films 18 sex xxx 225849 ryushare uploaded keep2share

First time Sexual Films 18 sex xxx 225849

HD Porn Teen Sex Videos 2979 ryushare uploaded keep2share

HD Porn Teen Sex Videos 2979

H D SEXI VIDEO com 226526 ryushare uploaded keep2share

H D SEXI VIDEO com 226526

Young legal porn clips 2837 ryushare uploaded keep2share

Young legal porn clips 2837

HD Sex World Videos High Definition Free Porn 224514 ryushare uploaded keep2share

HD Sex World Videos High Definition Free Porn 224514

Tanned teen in pink sofa ryushare uploaded keep2share

Tanned teen in pink sofa

Teen Sex Porn Videos Free Nude Teens 5214 ryushare uploaded keep2share

Teen Sex Porn Videos Free Nude Teens 5214

16 xxx ryushare uploaded keep2share

16 xxx

Wow porn hd downloads 224035 ryushare uploaded keep2share

Wow porn hd downloads 224035

Young xxx 224310 ryushare uploaded keep2share

Young xxx 224310

Teen porn movies 225157 ryushare uploaded keep2share

Teen porn movies 225157

Hot Teen Sex 4324 ryushare uploaded keep2share

Hot Teen Sex 4324

hardcore sex xxx 226030 ryushare uploaded keep2share

hardcore sex xxx 226030

download hd fucking video full 226558 ryushare uploaded keep2share

download hd fucking video full 226558

Teen porn xxx 225802 ryushare uploaded keep2share

Teen porn xxx 225802

Teen Sex Videos Big Tits Amateur 4768 ryushare uploaded keep2share

Teen Sex Videos Big Tits Amateur 4768

First time Sexual Films 18 sex xxx 225471 ryushare uploaded keep2share

First time Sexual Films 18 sex xxx 225471

xxx fuking feast times video hd dawunlod 226104 ryushare uploaded keep2share

xxx fuking feast times video hd dawunlod 226104

xvideos porn hd videos 226278 ryushare uploaded keep2share

xvideos porn hd videos 226278

ww poran xxx hd com 226538 ryushare uploaded keep2share

ww poran xxx hd com 226538

Jenna Sativa Rebecca-Volpetti-GANGBANG ryushare uploaded keep2share

Jenna Sativa Rebecca-Volpetti-GANGBANG

Hot Teen Sex 2747 ryushare uploaded keep2share

Hot Teen Sex 2747

www fist tam gralla xxx video com ryushare uploaded keep2share

www fist tam gralla xxx video com

Uploaded net porn 3760 ryushare uploaded keep2share

Uploaded net porn 3760

TeenyLovers – Zlata ryushare uploaded keep2share

TeenyLovers – Zlata

Teenage Fuck Clips 3405 ryushare uploaded keep2share

Teenage Fuck Clips 3405

sexxxxxxx mp 3 xxxhd 226194 ryushare uploaded keep2share

sexxxxxxx mp 3 xxxhd 226194

Report broken links / Post a comment

You must be logged in to post a comment.



General\r\nComplete name : D:HD Teens Tube Download Porn Sex clips movies.xxxTSNGDCrmTSNGDCrm.wmv\r\nFormat : Windows Media\r\nFile size : 665 MiB\r\nDuration : 12mn 9s\r\nOverall bit rate mode : Constant\r\nOverall bit rate : 7 641 Kbps\r\nMaximum Overall bit rate : 7 702 Kbps\r\nEncoded date : UTC 2009-06-27 11:31:03.468\r\n\r\nVideo\r\nID : 2\r\nFormat : VC-1\r\nFormat profile : MP@HL\r\nCodec ID : WMV3\r\nCodec ID/Info : Windows Media Video 9\r\nCodec ID/Hint : WMV3\r\nDescription of the codec : Windows Media Video 9 - Professional\r\nDuration : 12mn 9s\r\nBit rate mode : Constant\r\nBit rate : 7 386 Kbps\r\nWidth : 1 920 pixels\r\nHeight : 1 080 pixels\r\nDisplay aspect ratio : 16:9\r\nFrame rate : 30.000 fps\r\nColor space : YUV\r\nChroma subsampling : 4:2:0\r\nBit depth : 8 bits\r\nScan type : Progressive\r\nCompression mode : Lossy\r\nBits/(Pixel*Frame) : 0.119\r\nStream size : 642 MiB (97%)\r\nLanguage : English (US)\r\n\r\nAudio\r\nID : 1\r\nFormat : WMA\r\nFormat version : Version 2\r\nCodec ID : 161\r\nCodec ID/Info : Windows Media Audio\r\nDescription of the codec : Windows Media Audio 9 - 256 kbps, 44 kHz, stereo (A/V) 1-pass CBR\r\nDuration : 12mn 9s\r\nBit rate mode : Constant\r\nBit rate : 256 Kbps\r\nChannel(s) : 2 channels\r\nSampling rate : 44.1 KHz\r\nBit depth : 16 bits\r\nStream size : 22.3 MiB (3%)\r\nLanguage : English (US)\r\n\r\n