Hardcore Sex Hub 1433

Teen Porn XXX Tube 1437Young teens tube hot girls free porn video 1430

Posted in HD Porn, Pornstar, Sex Movies, Teen | 10959 Views |


Rate this girl !!!


(26 raters, 106 scores, average: 4.08 out of 5, 81.54%)


http://img102.imagetwist.com/i/05214/b0t2jts3k374.jpeg

Link(676 Mb||16:00||1920*1080||MP4)



DOWNLOAD

Keep2share.cc - Uploaded.net - Openload.co - Rapidu.net



Premium here:
uploaded.net
keep2share.cc
rapidu.net.cc

Incoming search terms:

  • hub hd xxx
  • क्सक्सक्सई २०१६ हब


Teens related to Hardcore Sex Hub 1433


Tube xxx 224403 ryushare uploaded keep2share

Tube xxx 224403

wow xxxvideoshd ryushare uploaded keep2share

wow xxxvideoshd

Kira Queen ryushare uploaded keep2share

Kira Queen

hi sex movies download in hq 226295 ryushare uploaded keep2share

hi sex movies download in hq 226295

HQ Sex Movies Download 1850 ryushare uploaded keep2share

HQ Sex Movies Download 1850

TeenyLovers – Zlata ryushare uploaded keep2share

TeenyLovers – Zlata

Small girls and boys porn 3525 ryushare uploaded keep2share

Small girls and boys porn 3525

Kathia Nobili, Meg Magic – Low Self-Esteem ryushare uploaded keep2share

Kathia Nobili, Meg Magic – Low Self-Esteem

Kail (AKA: Kail, Kortny, Sandy) ryushare uploaded keep2share

Kail (AKA: Kail, Kortny, Sandy)

Wow Girls Porn Clips download 225097 ryushare uploaded keep2share

Wow Girls Porn Clips download 225097

HD Sex World Videos High Definition Free Porn 5219 ryushare uploaded keep2share

HD Sex World Videos High Definition Free Porn 5219

xnsexvids hd 1080 ryushare uploaded keep2share

xnsexvids hd 1080

Young XXX Tube Videos 223682 ryushare uploaded keep2share

Young XXX Tube Videos 223682

X-Art – Addison – No Turning Back ryushare uploaded keep2share

X-Art – Addison – No Turning Back

cina video hdxxx 226321 ryushare uploaded keep2share

cina video hdxxx 226321

8 Teen XXX – Teen Sex 3479 ryushare uploaded keep2share

8 Teen XXX – Teen Sex 3479

Teen Sex Videos Tube Movies 2090 ryushare uploaded keep2share

Teen Sex Videos Tube Movies 2090

Wow Girls Porn Clips download 224666 ryushare uploaded keep2share

Wow Girls Porn Clips download 224666

Big sax video free download 226079 ryushare uploaded keep2share

Big sax video free download 226079

Wow porn tube movies 224325 ryushare uploaded keep2share

Wow porn tube movies 224325

Lola Taylor & Franck Franco – Saturday Night ryushare uploaded keep2share

Lola Taylor & Franck Franco – Saturday Night

HD Porn Video 224481 ryushare uploaded keep2share

HD Porn Video 224481

www pussyHD picture ryushare uploaded keep2share

www pussyHD picture

teenssexdownloa 226445 ryushare uploaded keep2share

teenssexdownloa 226445

Teen Sex Porn Videos Free Nude Teens 2202 ryushare uploaded keep2share

Teen Sex Porn Videos Free Nude Teens 2202

High Definition Movies on HD Teen Porn XXX Tube 3621 ryushare uploaded keep2share

High Definition Movies on HD Teen Porn XXX Tube 3621

High Definition Movies on HD 4195 ryushare uploaded keep2share

High Definition Movies on HD 4195

8 Teen XXX – Teen Sex 4550 ryushare uploaded keep2share

8 Teen XXX – Teen Sex 4550

Uploaded net porn 2834 ryushare uploaded keep2share

Uploaded net porn 2834

Download young porn sex 224839 ryushare uploaded keep2share

Download young porn sex 224839

Teens in Porno young porn videos and free teen sex 5211 ryushare uploaded keep2share

Teens in Porno young porn videos and free teen sex 5211

Wow porn tube movies 224880 ryushare uploaded keep2share

Wow porn tube movies 224880

Teen Porn XXX Tube 224730 ryushare uploaded keep2share

Teen Porn XXX Tube 224730

Check Out What Ive Learned ryushare uploaded keep2share

Check Out What Ive Learned

18OnlyGirls.com – Violette ryushare uploaded keep2share

18OnlyGirls.com – Violette

Report broken links / Post a comment

You must be logged in to post a comment.



General
Complete name : D:HD Teens Download Porn Sex clips movies Tube.xxxHNMBRSlyHNMBRSly.mp4
Format : MPEG-4
Format profile : Base Media
Codec ID : isom
File size : 676 MiB
Duration : 16mn 0s
Overall bit rate mode : Variable
Overall bit rate : 5 907 Kbps
Writing application : Lavf54.22.100

Video
ID : 1
Format : MPEG-4 Visual
Format profile : Simple@L1
Format settings, BVOP : No
Format settings, QPel : No
Format settings, GMC : No warppoints
Format settings, Matrix : Default (H.263)
Codec ID : 20
Duration : 16mn 0s
Bit rate mode : Variable
Bit rate : 5 809 Kbps
Maximum bit rate : 8 500 Kbps
Width : 1 920 pixels
Height : 1 080 pixels
Display aspect ratio : 16:9
Frame rate mode : Constant
Frame rate : 23.976 fps
Color space : YUV
Chroma subsampling : 4:2:0
Bit depth : 8 bits
Scan type : Progressive
Compression mode : Lossy
Bits/(Pixel*Frame) : 0.117
Stream size : 665 MiB (98%)
Writing library : Lavc54.46.100
Language : English

Audio
ID : 2
Format : AAC
Format/Info : Advanced Audio Codec
Format profile : LC
Codec ID : 40
Duration : 16mn 0s
Bit rate mode : Variable
Bit rate : 96.0 Kbps
Maximum bit rate : 128 Kbps
Channel(s) : 2 channels
Channel positions : Front: L R
Sampling rate : 48.0 KHz
Compression mode : Lossy
Stream size : 10.8 MiB (2%)
Language : English