Hardcore sex videos in the high definition quality 1804

8 Teen XXX - Teen Sex 1807Young XXX Tube Videos 1801

Posted in HD Porn, Pornstar, Sex Movies, Teen | 58299 Views |


Rate this girl !!!




\r\n\r\nhttp://img20.imagetwist.com/i/05280/t8wit427a4h7.jpeg\r\n\r\n Link(401 Mb||26:18||1280*720||MP4)



DOWNLOAD

Keep2share.cc - Uploaded.net - Openload.co - Rapidu.net


http://keep2share.cc/file/298dd77589f37
http://ryushare.com/iwl364cs6v7i/RBSCNdy.rar
http://ul.to/2ljqjh0g


Premium here:
uploaded.net
keep2share.cc
rapidu.net.cc


Teens related to Hardcore sex videos in the high definition quality 1804


Teen Tits Tube, Young Girls Porn Videos 2329 ryushare uploaded keep2share

Teen Tits Tube, Young Girls Porn Videos 2329

Hd young videos 225308 ryushare uploaded keep2share

Hd young videos 225308

Young Sex Movies 225932 ryushare uploaded keep2share

Young Sex Movies 225932

Hd young videos 4536 ryushare uploaded keep2share

Hd young videos 4536

Teen Tits Tube, Young Girls Porn Videos 224313 ryushare uploaded keep2share

Teen Tits Tube, Young Girls Porn Videos 224313

Young Virgin Pussy Teen Fuck Tube 224017 ryushare uploaded keep2share

Young Virgin Pussy Teen Fuck Tube 224017

xvideo hd movies free download 226781 ryushare uploaded keep2share

xvideo hd movies free download 226781

Uploaded net porn 3849 ryushare uploaded keep2share

Uploaded net porn 3849

Hardcore sex videos in the high definition quality 223959 ryushare uploaded keep2share

Hardcore sex videos in the high definition quality 223959

[FuckStudies.com] Iren ryushare uploaded keep2share

[FuckStudies.com] Iren

Hardcore Sex Hub 224214 ryushare uploaded keep2share

Hardcore Sex Hub 224214

Young XXX Tube Videos 2002 ryushare uploaded keep2share

Young XXX Tube Videos 2002

Teen xxx sex hd 225800 ryushare uploaded keep2share

Teen xxx sex hd 225800

Teenage Fuck Clips 5175 ryushare uploaded keep2share

Teenage Fuck Clips 5175

Teenage Fuck Clips 4414 ryushare uploaded keep2share

Teenage Fuck Clips 4414

me bbxxxhd 226343 ryushare uploaded keep2share

me bbxxxhd 226343

Teen Sex Movies 1772 ryushare uploaded keep2share

Teen Sex Movies 1772

Hot Teen Sex 4722 ryushare uploaded keep2share

Hot Teen Sex 4722

18 years girl xxx sex videos 2603 ryushare uploaded keep2share

18 years girl xxx sex videos 2603

Sweet Teen Porn – Young Porn Videos 225837 ryushare uploaded keep2share

Sweet Teen Porn – Young Porn Videos 225837

HD Porn Video 3620 ryushare uploaded keep2share

HD Porn Video 3620

Hot Teen Sex 224220 ryushare uploaded keep2share

Hot Teen Sex 224220

Hot sex girls movies download 2920 ryushare uploaded keep2share

Hot sex girls movies download 2920

Young teens tube hot girls free porn video 1430 ryushare uploaded keep2share

Young teens tube hot girls free porn video 1430

Young Sex Movies 225506 ryushare uploaded keep2share

Young Sex Movies 225506

Free Porn Videos Xxx Movies Pussy Porn 224126 ryushare uploaded keep2share

Free Porn Videos Xxx Movies Pussy Porn 224126

Teens Sweet orgy ryushare uploaded keep2share

Teens Sweet orgy

Porno movies young teens lesbian 224977 ryushare uploaded keep2share

Porno movies young teens lesbian 224977

Teenage Fuck Clips 3405 ryushare uploaded keep2share

Teenage Fuck Clips 3405

titshed net tube 226095 ryushare uploaded keep2share

titshed net tube 226095

download 1080p xxx porn video 226662 ryushare uploaded keep2share

download 1080p xxx porn video 226662

Lola Taylor & Franck Franco – Saturday Night ryushare uploaded keep2share

Lola Taylor & Franck Franco – Saturday Night

Teen Sex Movies 4310 ryushare uploaded keep2share

Teen Sex Movies 4310

HD Porn Teen Sex Videos 225821 ryushare uploaded keep2share

HD Porn Teen Sex Videos 225821

Teen Sex Movies 224779 ryushare uploaded keep2share

Teen Sex Movies 224779

Report broken links / Post a comment

You must be logged in to post a comment.



General\r\nComplete name : D:HD Teens Download Porn Sex clips movies Tube.xxxRBSCNdyRBSCNdy.mp4\r\nFormat : MPEG-4\r\nFormat profile : Base Media\r\nCodec ID : isom\r\nFile size : 401 MiB\r\nDuration : 26mn 18s\r\nOverall bit rate : 2 132 Kbps\r\nWriting application : Lavf54.63.104\r\n\r\nVideo\r\nID : 1\r\nFormat : AVC\r\nFormat/Info : Advanced Video Codec\r\nFormat profile : High@L3.2\r\nFormat settings, CABAC : Yes\r\nFormat settings, ReFrames : 4 frames\r\nCodec ID : avc1\r\nCodec ID/Info : Advanced Video Coding\r\nDuration : 26mn 18s\r\nBit rate : 2 000 Kbps\r\nWidth : 1 280 pixels\r\nHeight : 720 pixels\r\nDisplay aspect ratio : 16:9\r\nFrame rate mode : Constant\r\nFrame rate : 25.000 fps\r\nColor space : YUV\r\nChroma subsampling : 4:2:0\r\nBit depth : 8 bits\r\nScan type : Progressive\r\nBits/(Pixel*Frame) : 0.087\r\nStream size : 376 MiB (94%)\r\nWriting library : x264 core 135 r2345 f0c1c53\r\nEncoding settings : cabac=1 / ref=3 / deblock=1:-1:-1 / analyse=0x3:0x133 / me=umh / subme=9 / psy=1 / psy_rd=1.00:0.00 / mixed_ref=1 / me_range=16 / chroma_me=1 / trellis=2 / 8x8dct=1 / cqm=0 / deadzone=21,11 / fast_pskip=1 / chroma_qp_offset=-2 / threads=6 / lookahead_threads=1 / sliced_threads=0 / nr=0 / decimate=1 / interlaced=0 / bluray_compat=0 / constrained_intra=0 / bframes=3 / b_pyramid=2 / b_adapt=2 / b_bias=0 / direct=3 / weightb=1 / open_gop=0 / weightp=2 / keyint=250 / keyint_min=25 / scenecut=40 / intra_refresh=0 / rc_lookahead=60 / rc=crf / mbtree=1 / crf=20.0 / qcomp=0.60 / qpmin=0 / qpmax=69 / qpstep=4 / vbv_maxrate=2000 / vbv_bufsize=25000 / crf_max=0.0 / nal_hrd=none / ip_ratio=1.40 / aq=1:1.00\r\nLanguage : English\r\n\r\nAudio\r\nID : 2\r\nFormat : AAC\r\nFormat/Info : Advanced Audio Codec\r\nFormat profile : LC\r\nCodec ID : 40\r\nDuration : 26mn 18s\r\nBit rate mode : Constant\r\nBit rate : 125 Kbps\r\nChannel(s) : 2 channels\r\nChannel positions : Front: L R\r\nSampling rate : 48.0 KHz\r\nCompression mode : Lossy\r\nStream size : 23.6 MiB (6%)\r\nLanguage : English\r\n\r\n