HD Porn Teen Sex Videos 3959

Hot Teen Sex 3965Free Teen Porn Videos at Teen Sex Tube XXX 3958

Posted in HD Porn, Pornstar, Sex Movies, Teen | 5485 Views |


Rate this girl !!!




\r\n\r\n8.jpeg\r\n\r\nLink(434 Mb||16:13||1280*720||MP4)



DOWNLOAD

Keep2share.cc - Uploaded.net - Openload.co - Rapidu.net


http://ryushare.com/xgwqvyl68wln/G.N.R.D.F.Yv.y.mp4
http://ul.to/f0auz9hn/G.N.R.D.F.Yv.y.mp4
http://fileom.com/z0wfw45w6ymf/G.N.R.D.F.Yv.y.mp4.html
http://k2s.cc/file/98d7faa254acb/G.N.R.D.F.Yv.y.mp4


Premium here:
uploaded.net
keep2share.cc
rapidu.net.cc


Teens related to HD Porn Teen Sex Videos 3959


Babes.com Nataly Gold, Silvia Lauren – A guiding hand ryushare uploaded keep2share

Babes.com Nataly Gold, Silvia Lauren – A guiding hand

high quality full 1080 hd sex movies 226540 ryushare uploaded keep2share

high quality full 1080 hd sex movies 226540

Movies Young legal porn 224165 ryushare uploaded keep2share

Movies Young legal porn 224165

Hot teen ryushare uploaded keep2share

Hot teen

porn HD anfisa argentina ryushare uploaded keep2share

porn HD anfisa argentina

Porn HD Sex HD Teen Sex 2573 ryushare uploaded keep2share

Porn HD Sex HD Teen Sex 2573

Paula Shy – AfterParty – Sex Art ryushare uploaded keep2share

Paula Shy – AfterParty – Sex Art

download free xxx sex hd 226387 ryushare uploaded keep2share

download free xxx sex hd 226387

Young teens tube hot girls free porn video 5384 ryushare uploaded keep2share

Young teens tube hot girls free porn video 5384

Teen Tits Tube, Young Girls Porn Videos 1565 ryushare uploaded keep2share

Teen Tits Tube, Young Girls Porn Videos 1565

Girls do porn in HD 225969 ryushare uploaded keep2share

Girls do porn in HD 225969

teenseks1819 226156 ryushare uploaded keep2share

teenseks1819 226156

xxx hd move Hq 226564 ryushare uploaded keep2share

xxx hd move Hq 226564

www HD xxxvideos downlaod com ryushare uploaded keep2share

www HD xxxvideos downlaod com

www sexhdmovus com ryushare uploaded keep2share

www sexhdmovus com

JoyMii.com Lara – Getting Laid ryushare uploaded keep2share

JoyMii.com Lara – Getting Laid

Ivy, Victoria P, Three’s Company – JoyMii ryushare uploaded keep2share

Ivy, Victoria P, Three’s Company – JoyMii

Young Sex Movies 224351 ryushare uploaded keep2share

Young Sex Movies 224351

Tube Young Sex Amateur Orgy 4891 ryushare uploaded keep2share

Tube Young Sex Amateur Orgy 4891

Hot Teen Sex HD videos 224002 ryushare uploaded keep2share

Hot Teen Sex HD videos 224002

Free Porn Videos Xxx Movies Pussy Porn 225817 ryushare uploaded keep2share

Free Porn Videos Xxx Movies Pussy Porn 225817

Kail (AKA: Kail, Kortny, Sandy) ryushare uploaded keep2share

Kail (AKA: Kail, Kortny, Sandy)

xvideos hd porn videos DOWNLOAD ryushare uploaded keep2share

xvideos hd porn videos DOWNLOAD

Teen Sex Movies 225608 ryushare uploaded keep2share

Teen Sex Movies 225608

Teen Sex Movies 224712 ryushare uploaded keep2share

Teen Sex Movies 224712

Younglegalporn Alexis Crystal – Deeper Means Better ryushare uploaded keep2share

Younglegalporn Alexis Crystal – Deeper Means Better

Teen xxx sex hd 223777 ryushare uploaded keep2share

Teen xxx sex hd 223777

High Definition Movies on HD Teen Porn XXX Tube 2597 ryushare uploaded keep2share

High Definition Movies on HD Teen Porn XXX Tube 2597

8 Teen XXX – Teen Sex 1807 ryushare uploaded keep2share

8 Teen XXX – Teen Sex 1807

Hardcore Sex Hub 225062 ryushare uploaded keep2share

Hardcore Sex Hub 225062

xxx movies hd english ryushare uploaded keep2share

xxx movies hd english

Girls sex art hd teens videos 225807 ryushare uploaded keep2share

Girls sex art hd teens videos 225807

Young Virgin Pussy Teen Fuck Tube 4366 ryushare uploaded keep2share

Young Virgin Pussy Teen Fuck Tube 4366

Good Teen Tube Sexy Young Naked Girls Movies 224527 ryushare uploaded keep2share

Good Teen Tube Sexy Young Naked Girls Movies 224527

K Craving Lips 3 – B ryushare uploaded keep2share

K Craving Lips 3 – B

Report broken links / Post a comment

You must be logged in to post a comment.



General\r\nComplete name : D:RAPIDGATOR / UPLOADED / UPLOADABLE / KEEP2SHARE\r\nUPLOADED / RYUSHARE / FILEOM / KEEP2SHARE\r\n\r\nhd tube amateur porn young girls sex direct download online movies clips\r\nryushare.com uploaded.net keep2share.cc fileom.com streamcloud.eu allmyvideos.net ul.to download porn movies clipG.N.R.D.F.Yv.y.mp4\r\nFormat : MPEG-4\r\nFormat profile : Base Media\r\nCodec ID : isom\r\nFile size : 434 MiB\r\nDuration : 16mn 13s\r\nOverall bit rate mode : Variable\r\nOverall bit rate : 3 744 Kbps\r\nWriting application : Lavf54.22.100\r\n\r\nVideo\r\nID : 1\r\nFormat : MPEG-4 Visual\r\nFormat profile : Simple@L1\r\nFormat settings, BVOP : No\r\nFormat settings, QPel : No\r\nFormat settings, GMC : No warppoints\r\nFormat settings, Matrix : Default (H.263)\r\nCodec ID : 20\r\nDuration : 16mn 13s\r\nBit rate mode : Variable\r\nBit rate : 3 628 Kbps\r\nMaximum bit rate : 5 000 Kbps\r\nWidth : 1 280 pixels\r\nHeight : 720 pixels\r\nDisplay aspect ratio : 16:9\r\nFrame rate mode : Constant\r\nFrame rate : 25.000 fps\r\nColor space : YUV\r\nChroma subsampling : 4:2:0\r\nBit depth : 8 bits\r\nScan type : Progressive\r\nCompression mode : Lossy\r\nBits/(Pixel*Frame) : 0.157\r\nStream size : 421 MiB (97%)\r\nWriting library : Lavc54.46.100\r\nLanguage : English\r\n\r\nAudio\r\nID : 2\r\nFormat : AAC\r\nFormat/Info : Advanced Audio Codec\r\nFormat profile : LC\r\nCodec ID : 40\r\nDuration : 16mn 13s\r\nDuration_LastFrame : -1ms\r\nBit rate mode : Variable\r\nBit rate : 111 Kbps\r\nMaximum bit rate : 128 Kbps\r\nChannel(s) : 2 channels\r\nChannel positions : Front: L R\r\nSampling rate : 48.0 KHz\r\nCompression mode : Lossy\r\nStream size : 12.9 MiB (3%)\r\nLanguage : English\r\n\r\n