HD Porn Video 1358

Teen 18 Porn XXX Clips Naked 1367Hardcore Sex Hub 1355

Posted in Amateur, HD Porn, Sex Movies, Teen | 10488 Views |


Rate this girl !!!




\r\n\r\n\r\n\r\n\r\n\r\n\r\n\r\nhttp://img102.imagetwist.com/i/05200/aih50krqvd2o.jpeg\r\n\r\n Link(835 Mb||44:17||950*534||MP4)



DOWNLOAD

Keep2share.cc - Uploaded.net - Openload.co - Rapidu.net


http://ul.to/0vhkthu5
http://ryushare.com/ybxgi67n9fzv/CSNGTYlr.rar
http://keep2share.cc/file/2a720e095bf58


Premium here:
uploaded.net
keep2share.cc
rapidu.net.cc


Teens related to HD Porn Video 1358


HD Porn Teen Sex Videos 4043 ryushare uploaded keep2share

HD Porn Teen Sex Videos 4043

Sweet Teen Porn – Young Porn Videos 225945 ryushare uploaded keep2share

Sweet Teen Porn – Young Porn Videos 225945

Hot Teen Sex 4324 ryushare uploaded keep2share

Hot Teen Sex 4324

The best Teen sex 224192 ryushare uploaded keep2share

The best Teen sex 224192

daunloding sex xxx hd 226058 ryushare uploaded keep2share

daunloding sex xxx hd 226058

Sara Luvv – Dorm Room Invitation ryushare uploaded keep2share

Sara Luvv – Dorm Room Invitation

porne vedio mkv formate 226102 ryushare uploaded keep2share

porne vedio mkv formate 226102

Teen porn movies 224601 ryushare uploaded keep2share

Teen porn movies 224601

Tube xxx 5014 ryushare uploaded keep2share

Tube xxx 5014

Sweet Teen Porn – Young Porn Videos 4521 ryushare uploaded keep2share

Sweet Teen Porn – Young Porn Videos 4521

Teen porn xxx 5290 ryushare uploaded keep2share

Teen porn xxx 5290

Tube Young Sex 224693 ryushare uploaded keep2share

Tube Young Sex 224693

low quality of sex video 226074 ryushare uploaded keep2share

low quality of sex video 226074

Hardcore Sex Hub 4013 ryushare uploaded keep2share

Hardcore Sex Hub 4013

Jessica – Model Couple on Vacation ryushare uploaded keep2share

Jessica – Model Couple on Vacation

www hd xxx vadio ryushare uploaded keep2share

www hd xxx vadio

HD Porn Video 2499 ryushare uploaded keep2share

HD Porn Video 2499

proun hup xxx video mp4 ryushare uploaded keep2share

proun hup xxx video mp4

Young Sex Movies 4563 ryushare uploaded keep2share

Young Sex Movies 4563

K Daniela (Minimalist) 2014, Handjob, Blondes, 1080p ryushare uploaded keep2share

K Daniela (Minimalist) 2014, Handjob, Blondes, 1080p

www //Yang girl fuck hd com 226331 ryushare uploaded keep2share

www //Yang girl fuck hd com 226331

Teen porn movies 3659 ryushare uploaded keep2share

Teen porn movies 3659

16yers hd xxx com 226434 ryushare uploaded keep2share

16yers hd xxx com 226434

Hardcore sex videos in the high definition quality 3617 ryushare uploaded keep2share

Hardcore sex videos in the high definition quality 3617

hdsex movea com 226516 ryushare uploaded keep2share

hdsex movea com 226516

High Definition Movies on HD Teen Porn XXX Tube 3652 ryushare uploaded keep2share

High Definition Movies on HD Teen Porn XXX Tube 3652

Denise Sky ryushare uploaded keep2share

Denise Sky

J. Joanna – Slam It Harder ryushare uploaded keep2share

J. Joanna – Slam It Harder

Nude Teens fucking hard 5262 ryushare uploaded keep2share

Nude Teens fucking hard 5262

Bella Baby 2013 – Facial Double Blowjob Cumshot ryushare uploaded keep2share

Bella Baby 2013 – Facial Double Blowjob Cumshot

HD sex movies downloads 2913 ryushare uploaded keep2share

HD sex movies downloads 2913

8 Teen XXX – Teen Sex 1972 ryushare uploaded keep2share

8 Teen XXX – Teen Sex 1972

HD Porn Teen Sex Videos 225071 ryushare uploaded keep2share

HD Porn Teen Sex Videos 225071

Porn party teen girls 224803 ryushare uploaded keep2share

Porn party teen girls 224803

HD Porn Videos 3003 ryushare uploaded keep2share

HD Porn Videos 3003

Report broken links / Post a comment

You must be logged in to post a comment.



General\r\nComplete name : D:HD Teens Tube Download Porn Sex clips movies.xxxCSNGTYlrCSNGTYlr.mp4\r\nFormat : MPEG-4\r\nFormat profile : Base Media\r\nCodec ID : isom\r\nFile size : 835 MiB\r\nDuration : 44mn 17s\r\nOverall bit rate : 2 635 Kbps\r\nEncoded date : UTC 2014-01-21 23:43:38\r\nTagged date : UTC 2014-01-21 23:43:38\r\nWriting application : Lavf53.24.0\r\n\r\nVideo\r\nID : 1\r\nFormat : AVC\r\nFormat/Info : Advanced Video Codec\r\nFormat profile : High@L3.1\r\nFormat settings, CABAC : Yes\r\nFormat settings, ReFrames : 5 frames\r\nCodec ID : avc1\r\nCodec ID/Info : Advanced Video Coding\r\nDuration : 44mn 17s\r\nBit rate : 2 500 Kbps\r\nWidth : 950 pixels\r\nHeight : 534 pixels\r\nDisplay aspect ratio : 16:9\r\nOriginal display aspect ratio : 16:9\r\nFrame rate mode : Constant\r\nFrame rate : 29.970 fps\r\nColor space : YUV\r\nChroma subsampling : 4:2:0\r\nBit depth : 8 bits\r\nScan type : Progressive\r\nBits/(Pixel*Frame) : 0.164\r\nStream size : 791 MiB (95%)\r\nWriting library : x264 core 119 r2106 07efeb4\r\nEncoding settings : cabac=1 / ref=5 / deblock=1:0:0 / analyse=0x3:0x113 / me=umh / subme=8 / psy=0 / mixed_ref=1 / me_range=16 / chroma_me=1 / trellis=1 / 8x8dct=1 / cqm=0 / deadzone=21,11 / fast_pskip=1 / chroma_qp_offset=0 / threads=24 / sliced_threads=0 / nr=0 / decimate=1 / interlaced=0 / bluray_compat=0 / constrained_intra=0 / bframes=3 / b_pyramid=2 / b_adapt=2 / b_bias=0 / direct=3 / weightb=1 / open_gop=0 / weightp=2 / keyint=250 / keyint_min=25 / scenecut=40 / intra_refresh=0 / rc=abr / mbtree=0 / bitrate=2500 / ratetol=1.0 / qcomp=0.60 / qpmin=10 / qpmax=51 / qpstep=4 / ip_ratio=1.40 / pb_ratio=1.30 / aq=1:1.00\r\nLanguage : English\r\nEncoded date : UTC 2014-01-21 23:43:38\r\nTagged date : UTC 2014-01-21 23:43:38\r\n\r\nAudio\r\nID : 2\r\nFormat : AAC\r\nFormat/Info : Advanced Audio Codec\r\nFormat profile : LC\r\nCodec ID : 40\r\nDuration : 44mn 17s\r\nBit rate mode : Constant\r\nBit rate : 128 Kbps\r\nChannel(s) : 2 channels\r\nChannel positions : Front: L R\r\nSampling rate : 48.0 KHz\r\nCompression mode : Lossy\r\nStream size : 40.4 MiB (5%)\r\nLanguage : English\r\nEncoded date : UTC 2014-01-21 23:43:38\r\nTagged date : UTC 2014-01-21 23:43:38\r\n\r\n