HD Porn Video 1455

Teen porn movies 1460HD Teen Sex Tube 1451

Posted in Amateur, HD Porn, Sex Movies, Teen | 123394 Views |


Rate this girl !!!




\r\n\r\n\r\n\r\nhttp://img102.imagetwist.com/i/05215/x0sq58uey5ci.jpeg\r\n\r\nLink(532 Mb||20:29||1280*720||WMV)



DOWNLOAD

Keep2share.cc - Uploaded.net - Openload.co - Rapidu.net


http://keep2share.cc/file/adf0b69a89512
http://ryushare.com/cuoqnraxv4g0/NBSHDYrt.rar
http://ul.to/4js8mdco


Premium here:
uploaded.net
keep2share.cc
rapidu.net.cc


Teens related to HD Porn Video 1455


Wow porn hd downloads 224035 ryushare uploaded keep2share

Wow porn hd downloads 224035

Hot Teen Sex 1274 ryushare uploaded keep2share

Hot Teen Sex 1274

www sex all world hd com 226654 ryushare uploaded keep2share

www sex all world hd com 226654

Hardcore Sex Hub 225938 ryushare uploaded keep2share

Hardcore Sex Hub 225938

Adult Hardcore XXX Sex Videos 4052 ryushare uploaded keep2share

Adult Hardcore XXX Sex Videos 4052

www 8 ponr hb mp4 vibeo 226770 ryushare uploaded keep2share

www 8 ponr hb mp4 vibeo 226770

Adult Hardcore XXX Sex Videos 2982 ryushare uploaded keep2share

Adult Hardcore XXX Sex Videos 2982

HD Teens Sex Tube Videos XxX 4315 ryushare uploaded keep2share

HD Teens Sex Tube Videos XxX 4315

Free High Quality Sex Movies 2128 ryushare uploaded keep2share

Free High Quality Sex Movies 2128

High Definition Movies on HD Teen Porn XXX Tube 1687 ryushare uploaded keep2share

High Definition Movies on HD Teen Porn XXX Tube 1687

Fat Cock vs Horny Pussies ryushare uploaded keep2share

Fat Cock vs Horny Pussies

xxx videoss of small mb dowwnload ryushare uploaded keep2share

xxx videoss of small mb dowwnload

www xxxsex vebios com ryushare uploaded keep2share

www xxxsex vebios com

Wow Porn Movies download) 5319 ryushare uploaded keep2share

Wow Porn Movies download) 5319

Teen Porn XXX Tube 1280 ryushare uploaded keep2share

Teen Porn XXX Tube 1280

Uploaded net porn XXX 5126 ryushare uploaded keep2share

Uploaded net porn XXX 5126

Hardcore Sex Hub 224876 ryushare uploaded keep2share

Hardcore Sex Hub 224876

Free Porn Videos Xxx Movies Pussy Porn 3183 ryushare uploaded keep2share

Free Porn Videos Xxx Movies Pussy Porn 3183

xxxxxxxxxxxxx baf hf 226462 ryushare uploaded keep2share

xxxxxxxxxxxxx baf hf 226462

College Teen Sex 224503 ryushare uploaded keep2share

College Teen Sex 224503

Small girls and boys porn 3525 ryushare uploaded keep2share

Small girls and boys porn 3525

Young XXX Tube Videos 2398 ryushare uploaded keep2share

Young XXX Tube Videos 2398

Hot Teen Sex HD videos 1578 ryushare uploaded keep2share

Hot Teen Sex HD videos 1578

89 com hd vedeos 226744 ryushare uploaded keep2share

89 com hd vedeos 226744

Daisy, Jasmine – Boats n Hoes ryushare uploaded keep2share

Daisy, Jasmine – Boats n Hoes

Porn teen hd downloads 224721 ryushare uploaded keep2share

Porn teen hd downloads 224721

Young Virgin Pussy Teen Fuck Tube 223802 ryushare uploaded keep2share

Young Virgin Pussy Teen Fuck Tube 223802

barazzar hd fuck com 226325 ryushare uploaded keep2share

barazzar hd fuck com 226325

yangs xxxhd89 226700 ryushare uploaded keep2share

yangs xxxhd89 226700

Asian Amateur Video ryushare uploaded keep2share

Asian Amateur Video

Lilly – Hot pussy Fuck In An Armchair ryushare uploaded keep2share

Lilly – Hot pussy Fuck In An Armchair

mania fucking teen hd video ryushare uploaded keep2share

mania fucking teen hd video

Wow Porn Movies download) 224242 ryushare uploaded keep2share

Wow Porn Movies download) 224242

sexy video download hd in low mb 226202 ryushare uploaded keep2share

sexy video download hd in low mb 226202

Teen porn movies 225402 ryushare uploaded keep2share

Teen porn movies 225402

Report broken links / Post a comment

You must be logged in to post a comment.



General\r\nComplete name : D:HD Teens Download Porn Sex clips movies Tube.xxxNBSHDYrtNBSHDYrt.wmv\r\nFormat : Windows Media\r\nFile size : 532 MiB\r\nDuration : 20mn 29s\r\nOverall bit rate mode : Constant\r\nOverall bit rate : 3 631 Kbps\r\nMaximum Overall bit rate : 3 659 Kbps\r\nEncoded date : UTC 2009-12-10 02:56:25.226\r\nWriting application : TMPGEnc 4.0 XPress Version. 4.2.3.193\r\n\r\nVideo\r\nID : 2\r\nFormat : VC-1\r\nFormat profile : MP@HL\r\nCodec ID : WMV3\r\nCodec ID/Info : Windows Media Video 9\r\nCodec ID/Hint : WMV3\r\nDescription of the codec : Windows Media Video 9 - Professional\r\nDuration : 20mn 29s\r\nBit rate mode : Constant\r\nBit rate : 3 500 Kbps\r\nWidth : 1 280 pixels\r\nHeight : 720 pixels\r\nDisplay aspect ratio : 16:9\r\nFrame rate : 29.970 fps\r\nColor space : YUV\r\nChroma subsampling : 4:2:0\r\nBit depth : 8 bits\r\nScan type : Progressive\r\nCompression mode : Lossy\r\nBits/(Pixel*Frame) : 0.127\r\nStream size : 513 MiB (96%)\r\nLanguage : English (US)\r\n\r\nAudio\r\nID : 1\r\nFormat : WMA\r\nFormat version : Version 2\r\nCodec ID : 161\r\nCodec ID/Info : Windows Media Audio\r\nDescription of the codec : Windows Media Audio 9.2 - 128 kbps, 48 kHz, stereo 1-pass CBR\r\nDuration : 20mn 29s\r\nBit rate mode : Constant\r\nBit rate : 128 Kbps\r\nChannel(s) : 2 channels\r\nSampling rate : 48.0 KHz\r\nBit depth : 16 bits\r\nStream size : 18.8 MiB (4%)\r\nLanguage : English (US)\r\n\r\n\r\n