HD Porn Video 1552

HD Sex World Videos High Definition Free Porn 1554Free Porn Videos Xxx Movies Pussy Porn 1549

Posted in Amateur, HD Porn, Sex Movies, Teen | 9492 Views |


Rate this girl !!!




\r\n\r\n Link(985 Mb||33:16||1920*1080||MP4)



DOWNLOAD

Keep2share.cc - Uploaded.net - Openload.co - Rapidu.net


http://keep2share.cc/file/8131200c8d4a2
http://ryushare.com/0vvr4pw0g1wy/RSNBGBlk.rar
http://ul.to/xuodhu94


Premium here:
uploaded.net
keep2share.cc
rapidu.net.cc


Teens related to HD Porn Video 1552


Uploaded net porn XXX 5126 ryushare uploaded keep2share

Uploaded net porn XXX 5126

First time Sexual Films 18 sex xxx 4421 ryushare uploaded keep2share

First time Sexual Films 18 sex xxx 4421

Sweet Teen Porn – Young Porn Videos 3539 ryushare uploaded keep2share

Sweet Teen Porn – Young Porn Videos 3539

Lola Taylor & Franck Franco – Saturday Night ryushare uploaded keep2share

Lola Taylor & Franck Franco – Saturday Night

www xxx18yeras movie hot 226733 ryushare uploaded keep2share

www xxx18yeras movie hot 226733

pikworld hd sex com 226466 ryushare uploaded keep2share

pikworld hd sex com 226466

video9 inx ryushare uploaded keep2share

video9 inx

sex mkv movies hd 226711 ryushare uploaded keep2share

sex mkv movies hd 226711

Wow girls hd porn teens 224337 ryushare uploaded keep2share

Wow girls hd porn teens 224337

BRAZZERS sex hd videos download ryushare uploaded keep2share

BRAZZERS sex hd videos download

full 1280p xxx video 226633 ryushare uploaded keep2share

full 1280p xxx video 226633

18YearsOld.com Megan Rain – Playing Hooky ryushare uploaded keep2share

18YearsOld.com Megan Rain – Playing Hooky

Uploaded net porn 3849 ryushare uploaded keep2share

Uploaded net porn 3849

Teen Sex Porn Videos Free Nude Teens 5082 ryushare uploaded keep2share

Teen Sex Porn Videos Free Nude Teens 5082

Wow porn tube movies 4428 ryushare uploaded keep2share

Wow porn tube movies 4428

Teen Sex Movies 2658 ryushare uploaded keep2share

Teen Sex Movies 2658

Hardcore sex videos in the high definition quality 224111 ryushare uploaded keep2share

Hardcore sex videos in the high definition quality 224111

The best Teen sex 4297 ryushare uploaded keep2share

The best Teen sex 4297

Wow porn hd downloads 224274 ryushare uploaded keep2share

Wow porn hd downloads 224274

Wow porn tube movies 4008 ryushare uploaded keep2share

Wow porn tube movies 4008

Teenage Fuck Clips 3405 ryushare uploaded keep2share

Teenage Fuck Clips 3405

Beautifull tanned amateur teen 4899 ryushare uploaded keep2share

Beautifull tanned amateur teen 4899

Young Sex Movies 2030 ryushare uploaded keep2share

Young Sex Movies 2030

Hd quality – Teen sex video 1299 ryushare uploaded keep2share

Hd quality – Teen sex video 1299

RealExGirlfriends.com Megan Rain – Brunette Teen ryushare uploaded keep2share

RealExGirlfriends.com Megan Rain – Brunette Teen

[SellYourGF.com] Jade, Asa Belle – Fucked by the husband’s boss ryushare uploaded keep2share

[SellYourGF.com] Jade, Asa Belle – Fucked by the husband’s boss

www hd sex vediocom ryushare uploaded keep2share

www hd sex vediocom

www HD xxxvideos downlaod com ryushare uploaded keep2share

www HD xxxvideos downlaod com

www xxx hb movi 226762 ryushare uploaded keep2share

www xxx hb movi 226762

Hd young videos 3878 ryushare uploaded keep2share

Hd young videos 3878

jd www xxxhd com ryushare uploaded keep2share

jd www xxxhd com

Teen Sex Movies Young Porn Tube Vids 225839 ryushare uploaded keep2share

Teen Sex Movies Young Porn Tube Vids 225839

Long Julie Vee movies 226110 ryushare uploaded keep2share

Long Julie Vee movies 226110

www 8 ponr hb mp4 vibeo 226770 ryushare uploaded keep2share

www 8 ponr hb mp4 vibeo 226770

8teen sex free movies com ryushare uploaded keep2share

8teen sex free movies com

Report broken links / Post a comment

You must be logged in to post a comment.



General\r\nComplete name : D:HD Teens Download Porn Sex clips movies Tube.xxxRSNBGBlkRSNBGBlk.mp4\r\nFormat : MPEG-4\r\nFormat profile : Base Media / Version 2\r\nCodec ID : mp42\r\nFile size : 985 MiB\r\nDuration : 33mn 16s\r\nOverall bit rate mode : Variable\r\nOverall bit rate : 4 140 Kbps\r\nEncoded date : UTC 2013-11-11 11:54:55\r\nTagged date : UTC 2013-11-11 11:54:55\r\n\r\nVideo\r\nID : 1\r\nFormat : AVC\r\nFormat/Info : Advanced Video Codec\r\nFormat profile : Main@L4.2\r\nFormat settings, CABAC : Yes\r\nFormat settings, ReFrames : 3 frames\r\nCodec ID : avc1\r\nCodec ID/Info : Advanced Video Coding\r\nDuration : 33mn 16s\r\nBit rate mode : Constant\r\nBit rate : 4 000 Kbps\r\nWidth : 1 920 pixels\r\nHeight : 1 080 pixels\r\nDisplay aspect ratio : 16:9\r\nFrame rate mode : Constant\r\nFrame rate : 25.000 fps\r\nStandard : NTSC\r\nColor space : YUV\r\nChroma subsampling : 4:2:0\r\nBit depth : 8 bits\r\nScan type : Progressive\r\nBits/(Pixel*Frame) : 0.077\r\nStream size : 947 MiB (96%)\r\nLanguage : English\r\nEncoded date : UTC 2013-11-11 11:54:55\r\nTagged date : UTC 2013-11-11 11:54:55\r\n\r\nAudio\r\nID : 2\r\nFormat : AAC\r\nFormat/Info : Advanced Audio Codec\r\nFormat profile : LC\r\nCodec ID : 40\r\nDuration : 33mn 16s\r\nBit rate mode : Variable\r\nBit rate : 157 Kbps\r\nMaximum bit rate : 255 Kbps\r\nChannel(s) : 2 channels\r\nChannel positions : Front: L R\r\nSampling rate : 48.0 KHz\r\nCompression mode : Lossy\r\nStream size : 37.5 MiB (4%)\r\nLanguage : English\r\nEncoded date : UTC 2013-11-11 11:54:55\r\nTagged date : UTC 2013-11-11 11:54:55\r\n\r\n