HD Porn Videos 3003

Teen porn movies 3006HD Sex World Videos High Definition Free Porn 2998

Posted in Amateur, HD Porn, Sex Movies, Teen | 12671 Views |


Rate this girl !!!




\r\n2.jpeg\r\n\r\nLink(1.41 Gb||39:15||1280*720||MP4)



DOWNLOAD

Keep2share.cc - Uploaded.net - Openload.co - Rapidu.net


http://k2s.cc/file/46e1145909902/CBSGRNvn.mp4
http://ryushare.com/i681xd5qgmyd/CBSGRNvn.mp4
http://ul.to/2clbmv9x/CBSGRNvn.mp4


Premium here:
uploaded.net
keep2share.cc
rapidu.net.cc


Teens related to HD Porn Videos 3003


ww hot sex hdvideo download com ryushare uploaded keep2share

ww hot sex hdvideo download com

Young teens tube hot girls free porn video 224027 ryushare uploaded keep2share

Young teens tube hot girls free porn video 224027

Movies Young legal porn 225153 ryushare uploaded keep2share

Movies Young legal porn 225153

xxx video hd romantik downlod ryushare uploaded keep2share

xxx video hd romantik downlod

xxx teen clips 226044 ryushare uploaded keep2share

xxx teen clips 226044

Young Sex Movies 224073 ryushare uploaded keep2share

Young Sex Movies 224073

Fucking skinny pornstar girl ryushare uploaded keep2share

Fucking skinny pornstar girl

Sweet Teen Porn – Young Porn Videos 224227 ryushare uploaded keep2share

Sweet Teen Porn – Young Porn Videos 224227

A girl with heavenly curves ryushare uploaded keep2share

A girl with heavenly curves

Porn party teen girls 225405 ryushare uploaded keep2share

Porn party teen girls 225405

High Definition Movies on HD Teen Porn XXX Tube 3652 ryushare uploaded keep2share

High Definition Movies on HD Teen Porn XXX Tube 3652

Teen xxx sex hd 5239 ryushare uploaded keep2share

Teen xxx sex hd 5239

Young Sex Movies 225619 ryushare uploaded keep2share

Young Sex Movies 225619

The best Teen sex 1220 ryushare uploaded keep2share

The best Teen sex 1220

Аvа Spаrххх & Veronica Radke – Working The Earth ryushare uploaded keep2share

Аvа Spаrххх & Veronica Radke – Working The Earth

www8ten sex xxx com ryushare uploaded keep2share

www8ten sex xxx com

Free Porn Videos Xxx Movies Pussy Porn 1860 ryushare uploaded keep2share

Free Porn Videos Xxx Movies Pussy Porn 1860

Teen porn movies 3659 ryushare uploaded keep2share

Teen porn movies 3659

Tube Young Sex 2186 ryushare uploaded keep2share

Tube Young Sex 2186

Hd quality – Teen sex video 4257 ryushare uploaded keep2share

Hd quality – Teen sex video 4257

Teen Sex Videos Tube Movies 225847 ryushare uploaded keep2share

Teen Sex Videos Tube Movies 225847

Pchd full fuckin video 226436 ryushare uploaded keep2share

Pchd full fuckin video 226436

HD Porn Teen Sex Videos 223795 ryushare uploaded keep2share

HD Porn Teen Sex Videos 223795

Teenage Fuck Clips 2332 ryushare uploaded keep2share

Teenage Fuck Clips 2332

bbb hd sex 226562 ryushare uploaded keep2share

bbb hd sex 226562

www foto 8 teenxxx 226674 ryushare uploaded keep2share

www foto 8 teenxxx 226674

Teen Sex Videos Tube Movies 4086 ryushare uploaded keep2share

Teen Sex Videos Tube Movies 4086

ful hd porn girls 226184 ryushare uploaded keep2share

ful hd porn girls 226184

Tube Young Sex 3436 ryushare uploaded keep2share

Tube Young Sex 3436

sixe xxx hq 226055 ryushare uploaded keep2share

sixe xxx hq 226055

Amateur Teen Sex 224827 ryushare uploaded keep2share

Amateur Teen Sex 224827

Movies Young legal porn 224470 ryushare uploaded keep2share

Movies Young legal porn 224470

NubileFilms.com Kacy Lane – Sexual Tension ryushare uploaded keep2share

NubileFilms.com Kacy Lane – Sexual Tension

beata russian tean porn 226488 ryushare uploaded keep2share

beata russian tean porn 226488

K Two Teasing Tongues 8 B ryushare uploaded keep2share

K Two Teasing Tongues 8 B

Report broken links / Post a comment

You must be logged in to post a comment.



General\r\nComplete name : D:HD Porn Teens Sex download movies tube online tubeCBSGRNvn.mp4\r\nFormat : MPEG-4\r\nFormat profile : Base Media / Version 2\r\nCodec ID : mp42\r\nFile size : 1.41 GiB\r\nDuration : 39mn 15s\r\nOverall bit rate mode : Variable\r\nOverall bit rate : 5 134 Kbps\r\nEncoded date : UTC 2014-03-13 11:06:55\r\nTagged date : UTC 2014-03-13 11:06:55\r\nWriting library : Apple QuickTime\r\n\r\nVideo\r\nID : 1\r\nFormat : AVC\r\nFormat/Info : Advanced Video Codec\r\nFormat profile : Main@L3.1\r\nFormat settings, CABAC : No\r\nFormat settings, ReFrames : 3 frames\r\nCodec ID : avc1\r\nCodec ID/Info : Advanced Video Coding\r\nDuration : 39mn 15s\r\nSource duration : 39mn 15s\r\nBit rate mode : Variable\r\nBit rate : 4 794 Kbps\r\nMaximum bit rate : 5 000 Kbps\r\nWidth : 1 280 pixels\r\nHeight : 720 pixels\r\nDisplay aspect ratio : 16:9\r\nFrame rate mode : Constant\r\nFrame rate : 25.000 fps\r\nStandard : Component\r\nColor space : YUV\r\nChroma subsampling : 4:2:0\r\nBit depth : 8 bits\r\nScan type : Progressive\r\nBits/(Pixel*Frame) : 0.208\r\nStream size : 1.31 GiB (93%)\r\nSource stream size : 1.37 GiB (97%)\r\nLanguage : English\r\nEncoded date : UTC 2014-03-13 11:06:55\r\nTagged date : UTC 2014-03-13 11:06:55\r\nmdhd_Duration : 2355120\r\n\r\nAudio\r\nID : 2\r\nFormat : AAC\r\nFormat/Info : Advanced Audio Codec\r\nFormat profile : LC\r\nCodec ID : 40\r\nDuration : 39mn 15s\r\nBit rate mode : Variable\r\nBit rate : 128 Kbps\r\nMaximum bit rate : 133 Kbps\r\nChannel(s) : 2 channels\r\nChannel positions : Front: L R\r\nSampling rate : 44.1 KHz\r\nCompression mode : Lossy\r\nStream size : 35.9 MiB (2%)\r\nLanguage : English\r\nEncoded date : UTC 2014-03-13 11:06:55\r\nTagged date : UTC 2014-03-13 11:06:55\r\n\r\nOther #1\r\nID : 3\r\nType : Object description\r\nFormat : System Core\r\nCodec ID : 2\r\nDuration : 39mn 15s\r\nLanguage : English\r\nEncoded date : UTC 2014-03-13 11:06:55\r\nTagged date : UTC 2014-03-13 11:06:55\r\nmdhd_Duration : 1000\r\n\r\nOther #2\r\nID : 4\r\nType : Scene description\r\nFormat : System Core\r\nCodec ID : 2\r\nDuration : 39mn 15s\r\nLanguage : English\r\nEncoded date : UTC 2014-03-13 11:06:55\r\nTagged date : UTC 2014-03-13 11:06:55\r\nmdhd_Duration : 1000\r\n\r\n