HD sex movies downloads 3614

Hardcore sex videos in the high definition quality 3617Hot Teen Sex 3611

Posted in Amateur, HD Porn, Sex Movies, Teen | 8040 Views |


Rate this girl !!!




\r\n\r\n4.jpeg



DOWNLOAD

Keep2share.cc - Uploaded.net - Openload.co - Rapidu.net


http://ul.to/2pcx61mk/PRSTPGns.mp4
http://ryushare.com/3xkmno06uriq/PRSTPGns.mp4
http://k2s.cc/file/4aa6d54a07db2/PRSTPGns.mp4
http://fileom.com/3zkl83a19777/PRSTPGns.mp4.html


Premium here:
uploaded.net
keep2share.cc
rapidu.net.cc


Teens related to HD sex movies downloads 3614


Asian Amateur Video ryushare uploaded keep2share

Asian Amateur Video

full free download 720p hd porn movies 226240 ryushare uploaded keep2share

full free download 720p hd porn movies 226240

Teens in Porno young porn videos and free teen sex 225947 ryushare uploaded keep2share

Teens in Porno young porn videos and free teen sex 225947

xxx purn HD dawnlod ryushare uploaded keep2share

xxx purn HD dawnlod

Wow girls porn teens 3486 ryushare uploaded keep2share

Wow girls porn teens 3486

Wow girls porn teens 4254 ryushare uploaded keep2share

Wow girls porn teens 4254

Fat Cock vs Horny Pussies ryushare uploaded keep2share

Fat Cock vs Horny Pussies

Daisy, Jasmine – Boats n Hoes ryushare uploaded keep2share

Daisy, Jasmine – Boats n Hoes

Young XXX Tube Videos 4335 ryushare uploaded keep2share

Young XXX Tube Videos 4335

tube sex 17 girl ryushare uploaded keep2share

tube sex 17 girl

Teenies Videos – Teen Porn, Teen Sex, XXX Free Videos 1642 ryushare uploaded keep2share

Teenies Videos – Teen Porn, Teen Sex, XXX Free Videos 1642

8 Teen XXX – Teen Sex 1309 ryushare uploaded keep2share

8 Teen XXX – Teen Sex 1309

Silvie Deluxe & Matt Ice – Drive ryushare uploaded keep2share

Silvie Deluxe & Matt Ice – Drive

beautifull girls fuck ryushare uploaded keep2share

beautifull girls fuck

Amazing Outdoors – Beautiful Brunette ryushare uploaded keep2share

Amazing Outdoors – Beautiful Brunette

Veronika – Awesome sex with hot teeny ryushare uploaded keep2share

Veronika – Awesome sex with hot teeny

TrickyMasseur.com Isabeli ryushare uploaded keep2share

TrickyMasseur.com Isabeli

www xxx hot 99 com 226355 ryushare uploaded keep2share

www xxx hot 99 com 226355

hardcore sex xxx 226030 ryushare uploaded keep2share

hardcore sex xxx 226030

butt xxx hd move 226474 ryushare uploaded keep2share

butt xxx hd move 226474

JoyMii.com – Ivy, Fuck Me ryushare uploaded keep2share

JoyMii.com – Ivy, Fuck Me

Teen porn xxx 225790 ryushare uploaded keep2share

Teen porn xxx 225790

free hd mp4 vergin porn vedios ryushare uploaded keep2share

free hd mp4 vergin porn vedios

very hot pron 226721 ryushare uploaded keep2share

very hot pron 226721

nude hot 226040 ryushare uploaded keep2share

nude hot 226040

Teen Sex Videos Tube Movies 225164 ryushare uploaded keep2share

Teen Sex Videos Tube Movies 225164

K Craving Lips 3 – A ryushare uploaded keep2share

K Craving Lips 3 – A

Wow girls hd porn teens 224337 ryushare uploaded keep2share

Wow girls hd porn teens 224337

Teens in Porno young porn videos and free teen sex 224928 ryushare uploaded keep2share

Teens in Porno young porn videos and free teen sex 224928

beata russian tean porn 226488 ryushare uploaded keep2share

beata russian tean porn 226488

Teen Sex Videos Tube Movies 225416 ryushare uploaded keep2share

Teen Sex Videos Tube Movies 225416

Hd young videos 225366 ryushare uploaded keep2share

Hd young videos 225366

Hot Teen Sex HD videos 3863 ryushare uploaded keep2share

Hot Teen Sex HD videos 3863

Small girls and boys porn 3525 ryushare uploaded keep2share

Small girls and boys porn 3525

xxx movies hd for mobile com ryushare uploaded keep2share

xxx movies hd for mobile com

Report broken links / Post a comment

You must be logged in to post a comment.



General\r\nComplete name : D:hd pornstars teens ryushare.com uploaded.net keep2share.cc fileom.com amater couple young sex ibizaPRSTPGns.mp4\r\nFormat : MPEG-4\r\nFormat profile : Base Media\r\nCodec ID : isom\r\nFile size : 530 MiB\r\nDuration : 1h 44mn\r\nOverall bit rate : 711 Kbps\r\nWriting application : Lavf55.30.100\r\n\r\nVideo\r\nID : 1\r\nFormat : AVC\r\nFormat/Info : Advanced Video Codec\r\nFormat profile : High@L3.0\r\nFormat settings, CABAC : Yes\r\nFormat settings, ReFrames : 5 frames\r\nCodec ID : avc1\r\nCodec ID/Info : Advanced Video Coding\r\nDuration : 1h 44mn\r\nBit rate : 638 Kbps\r\nWidth : 768 pixels\r\nHeight : 432 pixels\r\nDisplay aspect ratio : 16:9\r\nFrame rate mode : Constant\r\nFrame rate : 29.970 fps\r\nColor space : YUV\r\nChroma subsampling : 4:2:0\r\nBit depth : 8 bits\r\nScan type : Progressive\r\nBits/(Pixel*Frame) : 0.064\r\nStream size : 475 MiB (90%)\r\nWriting library : x264 core 142 r2389 956c8d8\r\nEncoding settings : cabac=1 / ref=5 / deblock=1:0:0 / analyse=0x3:0x113 / me=umh / subme=8 / psy=1 / psy_rd=1.00:0.00 / mixed_ref=1 / me_range=16 / chroma_me=1 / trellis=1 / 8x8dct=1 / cqm=0 / deadzone=21,11 / fast_pskip=1 / chroma_qp_offset=2 / threads=6 / lookahead_threads=1 / sliced_threads=0 / nr=0 / decimate=1 / interlaced=0 / bluray_compat=0 / constrained_intra=0 / bframes=3 / b_pyramid=2 / b_adapt=2 / b_bias=0 / direct=3 / weightb=1 / open_gop=0 / weightp=2 / keyint=150 / keyint_min=15 / scenecut=40 / intra_refresh=0 / rc_lookahead=50 / rc=crf / mbtree=1 / crf=24.0 / qcomp=0.60 / qpmin=0 / qpmax=69 / qpstep=4 / vbv_maxrate=3000 / vbv_bufsize=3000 / crf_max=0.0 / nal_hrd=none / filler=0 / ip_ratio=1.40 / aq=1:1.00\r\n\r\nAudio\r\nID : 2\r\nFormat : AAC\r\nFormat/Info : Advanced Audio Codec\r\nFormat profile : LC\r\nCodec ID : 40\r\nDuration : 1h 44mn\r\nDuration_LastFrame : -10ms\r\nBit rate mode : Constant\r\nBit rate : 63.8 Kbps\r\nChannel(s) : 2 channels\r\nChannel(s)_Original : 1 channel\r\nChannel positions : Front: C\r\nSampling rate : 44.1 KHz\r\nCompression mode : Lossy\r\nStream size : 47.5 MiB (9%)\r\n\r\nhd pornstars teens ryushare.com uploaded.net keep2share.cc fileom.com amater couple young sex ibiza