HD Sex World Videos High Definition Free Porn 1997

Young XXX Tube Videos 2002College Teen Sex 1992

Posted in Amateur, HD Porn, Sex Movies, Teen | 7114 Views |


Rate this girl !!!




\r\n\r\n\r\n\r\nhttp://img102.imagetwist.com/i/05303/5ivrye5cuy9u.jpeg\r\n\r\n Link(981 Mb||22:03||1920*1080||WMV)



DOWNLOAD

Keep2share.cc - Uploaded.net - Openload.co - Rapidu.net


http://k2s.cc/file/b27b4ede1f962/FSNDGty.rar
http://ryushare.com/e5baacnogcds/FSNDGty.rar
http://uploaded.net/file/emzhst9y/FSNDGty.rar


Premium here:
uploaded.net
keep2share.cc
rapidu.net.cc


Teens related to HD Sex World Videos High Definition Free Porn 1997


Popular Videos ryushare uploaded keep2share

Popular Videos

Hd young videos 3757 ryushare uploaded keep2share

Hd young videos 3757

vrgen saxa vidoes hd 226731 ryushare uploaded keep2share

vrgen saxa vidoes hd 226731

Beata – Sharing A Nymph ryushare uploaded keep2share

Beata – Sharing A Nymph

4 mb porn massage fuck x videos 226297 ryushare uploaded keep2share

4 mb porn massage fuck x videos 226297

HD porn teen downloads 2715 ryushare uploaded keep2share

HD porn teen downloads 2715

Kennedy Leigh – Out With A Bang ryushare uploaded keep2share

Kennedy Leigh – Out With A Bang

8 Teen XXX – Teen Sex 2476 ryushare uploaded keep2share

8 Teen XXX – Teen Sex 2476

College Teen Sex 225537 ryushare uploaded keep2share

College Teen Sex 225537

Porno movies young teens lesbian 5412 ryushare uploaded keep2share

Porno movies young teens lesbian 5412

Free High Quality Sex Movies 225393 ryushare uploaded keep2share

Free High Quality Sex Movies 225393

Young Sex Movies 4407 ryushare uploaded keep2share

Young Sex Movies 4407

xxx18 yes 226216 ryushare uploaded keep2share

xxx18 yes 226216

Free High Quality Sex Movies 5357 ryushare uploaded keep2share

Free High Quality Sex Movies 5357

HD Sex World Videos High Definition Free Porn 1604 ryushare uploaded keep2share

HD Sex World Videos High Definition Free Porn 1604

High Definition Movies on HD 5578 ryushare uploaded keep2share

High Definition Movies on HD 5578

Hardcore Sex Hub 1963 ryushare uploaded keep2share

Hardcore Sex Hub 1963

[RylskyArt.com] Gia – Shadows ryushare uploaded keep2share

[RylskyArt.com] Gia – Shadows

caprice videos xxx ryushare uploaded keep2share

caprice videos xxx

First time Sexual Films 18 sex xxx 4745 ryushare uploaded keep2share

First time Sexual Films 18 sex xxx 4745

Cute face hot pussy – Angel Hot ryushare uploaded keep2share

Cute face hot pussy – Angel Hot

Teen porn movies 225211 ryushare uploaded keep2share

Teen porn movies 225211

xxx www888 ryushare uploaded keep2share

xxx www888

Teenies Videos – Teen Porn, Teen Sex, XXX Free Videos 2114 ryushare uploaded keep2share

Teenies Videos – Teen Porn, Teen Sex, XXX Free Videos 2114

xxxvideo s HD com 226265 ryushare uploaded keep2share

xxxvideo s HD com 226265

Small girls and boys porn 4002 ryushare uploaded keep2share

Small girls and boys porn 4002

YoungCourtesans.com Shakti – Special Sex Arrangement ryushare uploaded keep2share

YoungCourtesans.com Shakti – Special Sex Arrangement

Tantric Massage – All Sex HD1080p ryushare uploaded keep2share

Tantric Massage – All Sex HD1080p

sex bf movies hd com 226379 ryushare uploaded keep2share

sex bf movies hd com 226379

Young xxx 225572 ryushare uploaded keep2share

Young xxx 225572

bigbobs hd sex videos dawonlode ryushare uploaded keep2share

bigbobs hd sex videos dawonlode

xixx x video hd com ryushare uploaded keep2share

xixx x video hd com

Babes.com Linda Sweet, Susan Ayn, Victoria Daniels ryushare uploaded keep2share

Babes.com Linda Sweet, Susan Ayn, Victoria Daniels

xvideo teen mania 226536 ryushare uploaded keep2share

xvideo teen mania 226536

Teen Sex Porn Videos Free Nude Teens 224616 ryushare uploaded keep2share

Teen Sex Porn Videos Free Nude Teens 224616

Report broken links / Post a comment

You must be logged in to post a comment.



General\r\nComplete name : D:New folder218FSNDGtyFSNDGty.wmv\r\nFormat : Windows Media\r\nFile size : 981 MiB\r\nDuration : 22mn 3s\r\nOverall bit rate mode : Constant\r\nOverall bit rate : 6 218 Kbps\r\nMaximum Overall bit rate : 6 240 Kbps\r\nEncoded date : UTC 2014-01-17 09:05:17.237\r\n\r\nVideo\r\nID : 1\r\nFormat : VC-1\r\nFormat profile : MP@HL\r\nCodec ID : WMV3\r\nCodec ID/Info : Windows Media Video 9\r\nCodec ID/Hint : WMV3\r\nDescription of the codec : Windows Media Video 9 - Professional\r\nDuration : 22mn 4s\r\nBit rate mode : Constant\r\nBit rate : 6 000 Kbps\r\nWidth : 1 920 pixels\r\nHeight : 1 080 pixels\r\nDisplay aspect ratio : 16:9\r\nFrame rate : 25.000 fps\r\nColor space : YUV\r\nChroma subsampling : 4:2:0\r\nBit depth : 8 bits\r\nScan type : Progressive\r\nCompression mode : Lossy\r\nBits/(Pixel*Frame) : 0.116\r\nStream size : 947 MiB (96%)\r\nLanguage : Russian\r\n\r\nAudio\r\nID : 2\r\nFormat : WMA\r\nFormat version : Version 2\r\nCodec ID : 161\r\nCodec ID/Info : Windows Media Audio\r\nDescription of the codec : Windows Media Audio 9.2 - 192 kbps, 48 kHz, stereo 1-pass CBR\r\nDuration : 22mn 3s\r\nBit rate mode : Constant\r\nBit rate : 192 Kbps\r\nChannel(s) : 2 channels\r\nSampling rate : 48.0 KHz\r\nBit depth : 16 bits\r\nStream size : 30.3 MiB (3%)\r\nLanguage : Russian\r\n\r\n