HD Sex World Videos High Definition Free Porn 2998

HD Porn Videos 3003College Teen Sex 2994

Posted in Amateur, HD Porn, Sex Movies, Teen | 8151 Views |


Rate this girl !!!




\r\n\r\n11.jpeg\r\n\r\nLink(930 Mb||32:22||1280*720||WMV)



DOWNLOAD

Keep2share.cc - Uploaded.net - Openload.co - Rapidu.net


http://k2s.cc/file/ed57682b0b954/TRCMSRld.wmv
http://ryushare.com/8guw3dgnysc1/TRCMSRld.wmv
http://ul.to/l0dduuzj/TRCMSRld.wmv


Premium here:
uploaded.net
keep2share.cc
rapidu.net.cc


Teens related to HD Sex World Videos High Definition Free Porn 2998


Klixen – K Two Teasing Tongues 12 – B ryushare uploaded keep2share

Klixen – K Two Teasing Tongues 12 – B

Porn party teen girls 225405 ryushare uploaded keep2share

Porn party teen girls 225405

HD Porn Teen Sex Videos 2293 ryushare uploaded keep2share

HD Porn Teen Sex Videos 2293

HD Teen Sex Tube 3628 ryushare uploaded keep2share

HD Teen Sex Tube 3628

89 hd sex videos in 226208 ryushare uploaded keep2share

89 hd sex videos in 226208

hot first time xxxvedio download Co com 226230 ryushare uploaded keep2share

hot first time xxxvedio download Co com 226230

Hot Teen Sex 3705 ryushare uploaded keep2share

Hot Teen Sex 3705

Young Sex Movies 3635 ryushare uploaded keep2share

Young Sex Movies 3635

Super hot teens fuck swim pool ryushare uploaded keep2share

Super hot teens fuck swim pool

Teen porn movies 224601 ryushare uploaded keep2share

Teen porn movies 224601

Teen Sex Videos Tube Movies 1942 ryushare uploaded keep2share

Teen Sex Videos Tube Movies 1942

Good Teen Tube Sexy Young Naked Girls Movies 224527 ryushare uploaded keep2share

Good Teen Tube Sexy Young Naked Girls Movies 224527

HD Teens Sex Tube Videos XxX 225345 ryushare uploaded keep2share

HD Teens Sex Tube Videos XxX 225345

Teen sex xxx hd 4287 ryushare uploaded keep2share

Teen sex xxx hd 4287

x art angelica susie heidi orgy 226351 ryushare uploaded keep2share

x art angelica susie heidi orgy 226351

K Two Teasing Tongues 8 B ryushare uploaded keep2share

K Two Teasing Tongues 8 B

Kaylee Haze – Wet Pussy Play ryushare uploaded keep2share

Kaylee Haze – Wet Pussy Play

Tube Young Sex 1390 ryushare uploaded keep2share

Tube Young Sex 1390

xxx movies hd english ryushare uploaded keep2share

xxx movies hd english

pon ster xxxxxx ryushare uploaded keep2share

pon ster xxxxxx

Teen 18 Porn XXX Clips Naked 224773 ryushare uploaded keep2share

Teen 18 Porn XXX Clips Naked 224773

Free High Quality Sex Movies 4863 ryushare uploaded keep2share

Free High Quality Sex Movies 4863

free porn hot movies downld in hd avi ryushare uploaded keep2share

free porn hot movies downld in hd avi

hd sex videos 1080p download for pc ryushare uploaded keep2share

hd sex videos 1080p download for pc

HD SEX DOWNLOAD 100MB 226490 ryushare uploaded keep2share

HD SEX DOWNLOAD 100MB 226490

Sex with brunette in the kitchen ryushare uploaded keep2share

Sex with brunette in the kitchen

porn movie hd romantic download 226228 ryushare uploaded keep2share

porn movie hd romantic download 226228

NubileFilms.com Karol Lilien – Sounds Of Passion ryushare uploaded keep2share

NubileFilms.com Karol Lilien – Sounds Of Passion

Blonde fucked in all holes. Gang Bang ryushare uploaded keep2share

Blonde fucked in all holes. Gang Bang

sex vedios yang grls end boys ryushare uploaded keep2share

sex vedios yang grls end boys

hd 720p porn vdo download ryushare uploaded keep2share

hd 720p porn vdo download

teen xxx video hd dowalona ryushare uploaded keep2share

teen xxx video hd dowalona

www free x video hq hd com 226236 ryushare uploaded keep2share

www free x video hq hd com 226236

Watch Teen Sex Videos HD 1246 ryushare uploaded keep2share

Watch Teen Sex Videos HD 1246

Young XXX Tube Videos 3564 ryushare uploaded keep2share

Young XXX Tube Videos 3564

Report broken links / Post a comment

You must be logged in to post a comment.



General\r\nComplete name : D:HD Porn Teens Sex movies tube online downloadTRCMSRld.wmv\r\nFormat : Windows Media\r\nFile size : 930 MiB\r\nDuration : 32mn 22s\r\nOverall bit rate mode : Constant\r\nOverall bit rate : 4 016 Kbps\r\nMaximum Overall bit rate : 5 290 Kbps\r\nPerformer : Royal-Cash.com\r\nEncoded date : UTC 2014-03-31 15:22:21.180\r\nCopyright : Royal-Cash.com\r\n\r\nVideo\r\nID : 2\r\nFormat : VC-1\r\nFormat profile : MP@HL\r\nCodec ID : WMV3\r\nCodec ID/Info : Windows Media Video 9\r\nCodec ID/Hint : WMV3\r\nDescription of the codec : Windows Media Video 9 - Professional\r\nDuration : 32mn 22s\r\nBit rate mode : Constant\r\nBit rate : 5 120 Kbps\r\nWidth : 1 280 pixels\r\nHeight : 720 pixels\r\nDisplay aspect ratio : 16:9\r\nFrame rate : 25.000 fps\r\nColor space : YUV\r\nChroma subsampling : 4:2:0\r\nBit depth : 8 bits\r\nScan type : Progressive\r\nCompression mode : Lossy\r\nBits/(Pixel*Frame) : 0.222\r\nStream size : 1.16 GiB\r\nLanguage : Russian\r\nNumberOfFrames : 48557\r\n\r\nAudio\r\nID : 1\r\nFormat : WMA\r\nFormat version : Version 2\r\nCodec ID : 161\r\nCodec ID/Info : Windows Media Audio\r\nDescription of the codec : Windows Media Audio 9.2 - 128 kbps, 44 kHz, stereo 1-pass CBR\r\nDuration : 32mn 22s\r\nBit rate mode : Constant\r\nBit rate : 128 Kbps\r\nChannel(s) : 2 channels\r\nSampling rate : 44.1 KHz\r\nBit depth : 16 bits\r\nStream size : 29.6 MiB (3%)\r\nLanguage : Russian\r\nNumberOfFrames : 5231\r\n\r\n