HD Teen Sex Tube 3572

College Teen Sex 3576HD teen sex tube 3568

Posted in Amateur, HD Porn, Sex Movies, Teen | 11046 Views |


Rate this girl !!!


(34 raters, 121 scores, average: 3.56 out of 5, 71.18%)

9.jpeg

 



DOWNLOAD

Keep2share.cc - Uploaded.net - Openload.co - Rapidu.net



Premium here:
uploaded.net
keep2share.cc
rapidu.net.cc


Teens related to HD Teen Sex Tube 3572


8 Teen XXX – Teen Sex 3479 ryushare uploaded keep2share

8 Teen XXX – Teen Sex 3479

[RylskyArt.com] Gia – Shadows ryushare uploaded keep2share

[RylskyArt.com] Gia – Shadows

Beata Fucking in swimming pool ryushare uploaded keep2share

Beata Fucking in swimming pool

My bigtits girlfriend fornication – in the sack ryushare uploaded keep2share

My bigtits girlfriend fornication – in the sack

HD Porn Teen Sex Videos 225821 ryushare uploaded keep2share

HD Porn Teen Sex Videos 225821

Nomi – Bikini Land ryushare uploaded keep2share

Nomi – Bikini Land

Free Teen Porn Videos at Teen Sex Tube XXX 224751 ryushare uploaded keep2share

Free Teen Porn Videos at Teen Sex Tube XXX 224751

HD Porn Videos 5664 ryushare uploaded keep2share

HD Porn Videos 5664

Kail – My Favorite Country ryushare uploaded keep2share

Kail – My Favorite Country

Tube Young Sex 225873 ryushare uploaded keep2share

Tube Young Sex 225873

Teen Tits Tube, Young Girls Porn Videos 224467 ryushare uploaded keep2share

Teen Tits Tube, Young Girls Porn Videos 224467

yang garls boy xxx ryushare uploaded keep2share

yang garls boy xxx

Young Sex Movies 1400 ryushare uploaded keep2share

Young Sex Movies 1400

YoungCourtesans.com Shakti – Special Sex Arrangement ryushare uploaded keep2share

YoungCourtesans.com Shakti – Special Sex Arrangement

Any sex full hd x art porn vidivos free ryushare uploaded keep2share

Any sex full hd x art porn vidivos free

The best Teen sex 4297 ryushare uploaded keep2share

The best Teen sex 4297

18XGirls.com Tori (aka Lola Taylor) ryushare uploaded keep2share

18XGirls.com Tori (aka Lola Taylor)

HD Sex World Videos High Definition Free Porn 1501 ryushare uploaded keep2share

HD Sex World Videos High Definition Free Porn 1501

Free Teen Porn Videos at Teen Sex Tube XXX 225428 ryushare uploaded keep2share

Free Teen Porn Videos at Teen Sex Tube XXX 225428

poran sacool 226118 ryushare uploaded keep2share

poran sacool 226118

Free Porn Videos Xxx Movies Pussy Porn 1568 ryushare uploaded keep2share

Free Porn Videos Xxx Movies Pussy Porn 1568

Porn teen hd downloads 225845 ryushare uploaded keep2share

Porn teen hd downloads 225845

Uploaded net porn XXX 5126 ryushare uploaded keep2share

Uploaded net porn XXX 5126

Uploaded net porn XXX 224971 ryushare uploaded keep2share

Uploaded net porn XXX 224971

Two cocks for a teen ryushare uploaded keep2share

Two cocks for a teen

HD Porn Teen Sex Videos 4268 ryushare uploaded keep2share

HD Porn Teen Sex Videos 4268

Teen Sex Movies Young Porn Tube Vids 5156 ryushare uploaded keep2share

Teen Sex Movies Young Porn Tube Vids 5156

www x hd video dowanloding ryushare uploaded keep2share

www x hd video dowanloding

www virgin sex hd porn videos com ryushare uploaded keep2share

www virgin sex hd porn videos com

Teen Sex Videos Tube Movies 224992 ryushare uploaded keep2share

Teen Sex Videos Tube Movies 224992

Hd quality – Teen sex video 3481 ryushare uploaded keep2share

Hd quality – Teen sex video 3481

18 xxx potn srx 226432 ryushare uploaded keep2share

18 xxx potn srx 226432

College Teen Sex 3576 ryushare uploaded keep2share

College Teen Sex 3576

Adult Hardcore XXX Sex Videos 4188 ryushare uploaded keep2share

Adult Hardcore XXX Sex Videos 4188

Teen Porn XXX Tube 225857 ryushare uploaded keep2share

Teen Porn XXX Tube 225857

Report broken links / Post a comment

You must be logged in to post a comment.



General
Complete name : D:BSCMSTlc.mp4
Format : MPEG-4
Format profile : Base Media
Codec ID : isom
File size : 756 MiB
Duration : 24mn 35s
Overall bit rate : 4 300 Kbps
Writing application : Lavf55.7.100

Video
ID : 1
Format : AVC
Format/Info : Advanced Video Codec
Format profile : High@L4.1
Format settings, CABAC : Yes
Format settings, ReFrames : 5 frames
Codec ID : avc1
Codec ID/Info : Advanced Video Coding
Duration : 24mn 34s
Bit rate : 4 000 Kbps
Width : 1 280 pixels
Height : 720 pixels
Display aspect ratio : 16:9
Frame rate mode : Constant
Frame rate : 29.970 fps
Color space : YUV
Chroma subsampling : 4:2:0
Bit depth : 8 bits
Scan type : Progressive
Bits/(Pixel*Frame) : 0.145
Stream size : 701 MiB (93%)
Writing library : x264 core 133 r2334 a3ac64b
Encoding settings : cabac=1 / ref=5 / deblock=1:0:0 / analyse=0x3:0x113 / me=umh / subme=8 / psy=1 / psy_rd=1.00:0.00 / mixed_ref=1 / me_range=16 / chroma_me=1 / trellis=1 / 8x8dct=1 / cqm=0 / deadzone=21,11 / fast_pskip=1 / chroma_qp_offset=-2 / threads=6 / lookahead_threads=1 / sliced_threads=0 / nr=0 / decimate=1 / interlaced=0 / bluray_compat=0 / constrained_intra=0 / bframes=3 / b_pyramid=2 / b_adapt=2 / b_bias=0 / direct=3 / weightb=1 / open_gop=0 / weightp=2 / keyint=60 / keyint_min=6 / scenecut=40 / intra_refresh=0 / rc_lookahead=50 / rc=abr / mbtree=1 / bitrate=4000 / ratetol=1.0 / qcomp=0.60 / qpmin=0 / qpmax=69 / qpstep=4 / ip_ratio=1.40 / aq=1:1.00
Tagged date : UTC 2014-06-04 11:36:27

Audio
ID : 2
Format : AAC
Format/Info : Advanced Audio Codec
Format profile : LC
Codec ID : 40
Duration : 24mn 35s
Duration_LastFrame : -9ms
Bit rate mode : Constant
Bit rate : 128 Kbps
Channel(s) : 2 channels
Channel positions : Front: L R
Sampling rate : 48.0 KHz
Compression mode : Lossy
Stream size : 22.5 MiB (3%)
Tagged date : UTC 2014-06-04 11:36:27

Other #1
ID : 65536
Type : Hint
Format : RTP
Codec ID : rtp
Duration : 24mn 34s
Encoded date : UTC 2014-06-04 11:35:27
Tagged date : UTC 2014-06-04 11:36:27

Other #2
ID : 65537
Type : Hint
Format : RTP
Codec ID : rtp
Duration : 24mn 35s
Encoded date : UTC 2014-06-04 11:36:26
Tagged date : UTC 2014-06-04 11:36:27
Bit rate mode : VBR