HD Teens Sex Tube Videos XxX 3653

Teen porn movies 3659High Definition Movies on HD Teen Porn XXX Tube 3652

Posted in HD Porn, Pornstar, Sex Movies, Teen | 38860 Views |


Rate this girl !!!




\r\n\r\n5.jpeg



DOWNLOAD

Keep2share.cc - Uploaded.net - Openload.co - Rapidu.net


http://ul.to/ye6ov5c2/RGSMTvy.mp4
http://fileom.com/zoibyak3n4a2/RGSMTvy.mp4.html
http://ryushare.com/kwjs4apu9ymo/RGSMTvy.mp4
http://k2s.cc/file/5369f1261f52c/RGSMTvy.mp4


Premium here:
uploaded.net
keep2share.cc
rapidu.net.cc


Teens related to HD Teens Sex Tube Videos XxX 3653


Young XXX Tube Videos 3935 ryushare uploaded keep2share

Young XXX Tube Videos 3935

High Definition Movies on HD 225835 ryushare uploaded keep2share

High Definition Movies on HD 225835

HD Sex World Videos High Definition Free Porn 5342 ryushare uploaded keep2share

HD Sex World Videos High Definition Free Porn 5342

www xxx hd ht vidoy com 226150 ryushare uploaded keep2share

www xxx hd ht vidoy com 226150

First time Sexual Films 18 sex xxx 2336 ryushare uploaded keep2share

First time Sexual Films 18 sex xxx 2336

Free Porn Videos Xxx Movies Pussy Porn 224680 ryushare uploaded keep2share

Free Porn Videos Xxx Movies Pussy Porn 224680

Teen porn movies 2560 ryushare uploaded keep2share

Teen porn movies 2560

xxx hd move Hq 226564 ryushare uploaded keep2share

xxx hd move Hq 226564

HQ Sex Movies Download 4182 ryushare uploaded keep2share

HQ Sex Movies Download 4182

Teen Sex Movies Young Porn Tube Vids 225839 ryushare uploaded keep2share

Teen Sex Movies Young Porn Tube Vids 225839

College Teen Sex 224724 ryushare uploaded keep2share

College Teen Sex 224724

Hot Teen Sex 224413 ryushare uploaded keep2share

Hot Teen Sex 224413

First time Sexual Films 18 sex xxx 3607 ryushare uploaded keep2share

First time Sexual Films 18 sex xxx 3607

Wow girls hd porn teens 224337 ryushare uploaded keep2share

Wow girls hd porn teens 224337

College Teen Sex 2344 ryushare uploaded keep2share

College Teen Sex 2344

18YearsOld.com Megan Rain – Playing Hooky ryushare uploaded keep2share

18YearsOld.com Megan Rain – Playing Hooky

Model porno sex 4345 ryushare uploaded keep2share

Model porno sex 4345

Hot Teen Sex 2988 ryushare uploaded keep2share

Hot Teen Sex 2988

Teenies Videos – Teen Porn, Teen Sex, XXX Free Videos 2408 ryushare uploaded keep2share

Teenies Videos – Teen Porn, Teen Sex, XXX Free Videos 2408

HD Teens Sex Tube Videos XxX 2706 ryushare uploaded keep2share

HD Teens Sex Tube Videos XxX 2706

Brandi Melanie Melody – Real Amateur Girls ryushare uploaded keep2share

Brandi Melanie Melody – Real Amateur Girls

Kira Queen ryushare uploaded keep2share

Kira Queen

8 Teen XXX – Teen Sex 1309 ryushare uploaded keep2share

8 Teen XXX – Teen Sex 1309

Porn party teen girls 225342 ryushare uploaded keep2share

Porn party teen girls 225342

HD Teens Sex Tube Videos XxX 224988 ryushare uploaded keep2share

HD Teens Sex Tube Videos XxX 224988

2Ch Young ryushare uploaded keep2share

2Ch Young

Chelsea – First & Forever ryushare uploaded keep2share

Chelsea – First & Forever

Hot Teen Sex HD videos 1578 ryushare uploaded keep2share

Hot Teen Sex HD videos 1578

Small girl having hot group sex ryushare uploaded keep2share

Small girl having hot group sex

xxx videos hd 1080p free download 226275 ryushare uploaded keep2share

xxx videos hd 1080p free download 226275

Www sex Full PcVideo ryushare uploaded keep2share

Www sex Full PcVideo

Hot sex girls movies download 2920 ryushare uploaded keep2share

Hot sex girls movies download 2920

Hot sex girls movies download 2609 ryushare uploaded keep2share

Hot sex girls movies download 2609

Young Virgin Pussy Teen Fuck Tube 224545 ryushare uploaded keep2share

Young Virgin Pussy Teen Fuck Tube 224545

virgin girl sex hd free 226524 ryushare uploaded keep2share

virgin girl sex hd free 226524

Report broken links / Post a comment

You must be logged in to post a comment.



General\r\nComplete name : D:hd pornstars teens ryushare.com uploaded.net keep2share.cc fileom.com download porn movies clips RGSMTvy.mp4\r\nFormat : MPEG-4\r\nFormat profile : Base Media\r\nCodec ID : isom\r\nFile size : 694 MiB\r\nDuration : 23mn 29s\r\nOverall bit rate : 4 131 Kbps\r\nWriting application : Lavf54.29.104\r\n\r\nVideo\r\nID : 1\r\nFormat : AVC\r\nFormat/Info : Advanced Video Codec\r\nFormat profile : High@L3.0\r\nFormat settings, CABAC : Yes\r\nFormat settings, ReFrames : 4 frames\r\nCodec ID : avc1\r\nCodec ID/Info : Advanced Video Coding\r\nDuration : 23mn 28s\r\nBit rate : 4 000 Kbps\r\nWidth : 852 pixels\r\nHeight : 480 pixels\r\nDisplay aspect ratio : 16:9\r\nFrame rate mode : Constant\r\nFrame rate : 24.000 fps\r\nColor space : YUV\r\nChroma subsampling : 4:2:0\r\nBit depth : 8 bits\r\nScan type : Progressive\r\nBits/(Pixel*Frame) : 0.408\r\nStream size : 672 MiB (97%)\r\nWriting library : x264 core 136\r\nEncoding settings : cabac=1 / ref=1 / deblock=1:0:0 / analyse=0x3:0x113 / me=hex / subme=2 / psy=1 / psy_rd=1.00:0.00 / mixed_ref=0 / me_range=16 / chroma_me=1 / trellis=0 / 8x8dct=1 / cqm=0 / deadzone=21,11 / fast_pskip=1 / chroma_qp_offset=0 / threads=48 / lookahead_threads=3 / sliced_threads=0 / nr=0 / decimate=1 / interlaced=0 / bluray_compat=0 / constrained_intra=0 / bframes=3 / b_pyramid=2 / b_adapt=1 / b_bias=0 / direct=1 / weightb=1 / open_gop=0 / weightp=1 / keyint=48 / keyint_min=4 / scenecut=40 / intra_refresh=0 / rc_lookahead=10 / rc=2pass / mbtree=1 / bitrate=4000 / ratetol=1.0 / qcomp=0.60 / qpmin=0 / qpmax=69 / qpstep=4 / cplxblur=20.0 / qblur=0.5 / ip_ratio=1.40 / aq=1:1.00\r\nLanguage : English\r\n\r\nAudio\r\nID : 2\r\nFormat : AAC\r\nFormat/Info : Advanced Audio Codec\r\nFormat profile : LC\r\nCodec ID : 40\r\nDuration : 23mn 29s\r\nBit rate mode : Constant\r\nBit rate : 126 Kbps\r\nChannel(s) : 2 channels\r\nChannel positions : Front: L R\r\nSampling rate : 44.1 KHz\r\nCompression mode : Lossy\r\nStream size : 21.1 MiB (3%)\r\n\r\nhd pornstars teens ryushare.com uploaded.net keep2share.cc fileom.com download porn movies clips