HDMassagePorn – Gianna – Sporty Blonde In Hot HD Porn

Lilly - Hot pussy Fuck In An ArmchairReal Bushy Beavers 18 - Timea Bella

Posted in Amateur, HD Porn, Sex Movies, Teen | 30842 Views |


Rate this girl !!!




HDMassagePorn – Gianna – Sporty Blonde In Hot HD Porn [FullHD 1080p]\r\n\r\n HDMassagePorn - Gianna - Sporty Blonde In Hot HD Porn 1\r\n\r\nI bet this sassy blonde will never forget this incredible hot sex massage! The massagist started with caressing her booty, her shaved pussy, her beautiful tits, and soon the girl was horny enough to perform a jaw-breaking blowjob. After that the two of them plunged into crazy massage fucking\r\n\r\nOriginal Name: Sporty Blonde In Hot HD Porn\r\nStarring: Gianna\r\nStudio: HDMassagePorn\r\nGenre: Teen, All Sex, Amateur, Students, Blowjob, Cumshots, Slender, Shaved, Natural Tits\r\nDuration: 47 min.\r\n\r\nQuality: FullHD\r\nType HD Video: 1080p\r\nFormat: MP4\r\nVideo: 1920 x 1080, 2719 kbps\r\nAudio: MPEG-4, 44100Hz, 160 kb/s, Stereo\r\nSize: 954 Mb\r\n\r\nHDMassagePorn - Gianna - Sporty Blonde In Hot HD Porn 2



DOWNLOAD

Keep2share.cc - Uploaded.net - Openload.co - Rapidu.net


http://ryushare.com/goxf89bcxdgg/G14nna_HD.rar
http://ul.to/99rbyjbn


Premium here:
uploaded.net
keep2share.cc
rapidu.net.cc

Teens related to HDMassagePorn – Gianna – Sporty Blonde In Hot HD Porn


Young legal porn clips 4754 ryushare uploaded keep2share

Young legal porn clips 4754

Innocent Young Blonde Gets Fucked For The First Time on Cam ryushare uploaded keep2share

Innocent Young Blonde Gets Fucked For The First Time on Cam

Teenies Videos – Teen Porn, Teen Sex, XXX Free Videos 5163 ryushare uploaded keep2share

Teenies Videos – Teen Porn, Teen Sex, XXX Free Videos 5163

[AbbyWinters.com] Editors Choice – October 2012 Squirting ryushare uploaded keep2share

[AbbyWinters.com] Editors Choice – October 2012 Squirting

Adult Hardcore XXX Sex Videos 1343 ryushare uploaded keep2share

Adult Hardcore XXX Sex Videos 1343

Lily Love – Meditating Beauty ryushare uploaded keep2share

Lily Love – Meditating Beauty

download hd sex vids for pc 226447 ryushare uploaded keep2share

download hd sex vids for pc 226447

Hardcore Sex Hub 223889 ryushare uploaded keep2share

Hardcore Sex Hub 223889

kHz xxx sex ryushare uploaded keep2share

kHz xxx sex

Teen porn movies 3184 ryushare uploaded keep2share

Teen porn movies 3184

Young XXX Tube Videos 3931 ryushare uploaded keep2share

Young XXX Tube Videos 3931

HD Porn Teen Sex Videos 4992 ryushare uploaded keep2share

HD Porn Teen Sex Videos 4992

Babes Giselle Leon 1080p ryushare uploaded keep2share

Babes Giselle Leon 1080p

www hd bf sexy videos ryushare uploaded keep2share

www hd bf sexy videos

18 years girl xxx sex videos) 2819 ryushare uploaded keep2share

18 years girl xxx sex videos) 2819

Pretty skinny girl in casting video ryushare uploaded keep2share

Pretty skinny girl in casting video

www ingland sexcom 226618 ryushare uploaded keep2share

www ingland sexcom 226618

Wow porn tube movies 224880 ryushare uploaded keep2share

Wow porn tube movies 224880

Angelica – Good Night Kiss ryushare uploaded keep2share

Angelica – Good Night Kiss

Teen Tits Tube, Young Girls Porn Videos 225601 ryushare uploaded keep2share

Teen Tits Tube, Young Girls Porn Videos 225601

Movies Young legal porn 225865 ryushare uploaded keep2share

Movies Young legal porn 225865

wow girs com 226007 ryushare uploaded keep2share

wow girs com 226007

Teen Sex Movies 2122 ryushare uploaded keep2share

Teen Sex Movies 2122

Wow girls porn teens 3486 ryushare uploaded keep2share

Wow girls porn teens 3486

www yesxx xxx 226218 ryushare uploaded keep2share

www yesxx xxx 226218

Alice – Newbie Paid for Taking a Cumshot ryushare uploaded keep2share

Alice – Newbie Paid for Taking a Cumshot

Jessie Volt (K POV) B ryushare uploaded keep2share

Jessie Volt (K POV) B

[POVD.com] Kendall Kayden – Shower Show ryushare uploaded keep2share

[POVD.com] Kendall Kayden – Shower Show

Hot Teen Sex 4722 ryushare uploaded keep2share

Hot Teen Sex 4722

HD sex movies downloads 2857 ryushare uploaded keep2share

HD sex movies downloads 2857

Tube Young Sex 225873 ryushare uploaded keep2share

Tube Young Sex 225873

Young Sex Movies 5695 ryushare uploaded keep2share

Young Sex Movies 5695

Teen Sex Movies Young Porn Tube Vids 5659 ryushare uploaded keep2share

Teen Sex Movies Young Porn Tube Vids 5659

College Teen Sex 1898 ryushare uploaded keep2share

College Teen Sex 1898

xxx fuking feast times video hd dawunlod 226104 ryushare uploaded keep2share

xxx fuking feast times video hd dawunlod 226104

Comments (1)

Report broken links / Post a comment

You must be logged in to post a comment.



General\r\nComplete name : D:Gianna_HDGianna_HD.mp4\r\nFormat : MPEG-4\r\nFormat profile : Base Media\r\nCodec ID : isom\r\nFile size : 955 MiB\r\nDuration : 46mn 21s\r\nOverall bit rate : 2 879 Kbps\r\nWriting application : Lavf54.59.106\r\n\r\nVideo\r\nID : 1\r\nFormat : AVC\r\nFormat/Info : Advanced Video Codec\r\nFormat profile : High@L5.0\r\nFormat settings, CABAC : Yes\r\nFormat settings, ReFrames : 5 frames\r\nCodec ID : avc1\r\nCodec ID/Info : Advanced Video Coding\r\nDuration : 46mn 21s\r\nBit rate : 2 711 Kbps\r\nWidth : 1 920 pixels\r\nHeight : 1 080 pixels\r\nDisplay aspect ratio : 16:9\r\nFrame rate mode : Constant\r\nFrame rate : 29.970 fps\r\nColor space : YUV\r\nChroma subsampling : 4:2:0\r\nBit depth : 8 bits\r\nScan type : Progressive\r\nBits/(Pixel*Frame) : 0.044\r\nStream size : 899 MiB (94%)\r\nWriting library : x264 core 129 r2245 bc13772\r\nEncoding settings : cabac=1 / ref=5 / deblock=1:0:0 / analyse=0x3:0x113 / me=umh / subme=8 / psy=1 / psy_rd=1.00:0.00 / mixed_ref=1 / me_range=16 / chroma_me=1 / trellis=1 / 8x8dct=1 / cqm=0 / deadzone=21,11 / fast_pskip=1 / chroma_qp_offset=0 / threads=6 / lookahead_threads=1 / sliced_threads=0 / nr=0 / decimate=1 / interlaced=0 / bluray_compat=0 / constrained_intra=0 / bframes=3 / b_pyramid=2 / b_adapt=2 / b_bias=0 / direct=3 / weightb=1 / open_gop=0 / weightp=2 / keyint=150 / keyint_min=15 / scenecut=40 / intra_refresh=0 / rc_lookahead=50 / rc=crf / mbtree=1 / crf=22.0 / qcomp=0.60 / qpmin=0 / qpmax=69 / qpstep=4 / vbv_maxrate=9000 / vbv_bufsize=9000 / crf_max=0.0 / nal_hrd=none / ip_ratio=1.40 / aq=1:1.00\r\n\r\nAudio\r\nID : 2\r\nFormat : AAC\r\nFormat/Info : Advanced Audio Codec\r\nFormat profile : LC\r\nCodec ID : 40\r\nDuration : 46mn 20s\r\nDuration_LastFrame : -10ms\r\nBit rate mode : Constant\r\nBit rate : 160 Kbps\r\nChannel(s) : 2 channels\r\nChannel positions : Front: L R\r\nSampling rate : 44.1 KHz\r\nCompression mode : Lossy\r\nStream size : 53.0 MiB (6%)\r\n\r\n