High Definition Movies on HD 1647

Sweet Teen Porn - Young Porn Videos 1653Teenies Videos - Teen Porn, Teen Sex, XXX Free Videos 1642

Posted in Amateur, HD Porn, Sex Movies, Teen | 6363 Views |


Rate this girl !!!


(16 raters, 64 scores, average: 4.00 out of 5, 80%)




http://img102.imagetwist.com/i/05252/7dmsopra77j0.jpg

Link(611 Mb||16:56||1280*720||MP4)



DOWNLOAD

Keep2share.cc - Uploaded.net - Openload.co - Rapidu.net



Premium here:
uploaded.net
keep2share.cc
rapidu.net.cc

Incoming search terms:

  • sexpothoes
  • 1080picture porn video download
  • 1080pic porn
  • hd porn 1080pictures
  • porn 1080pic videos
  • Hot Xxx 1080picture download
  • xxx hd video in 1080pic downlod


Teens related to High Definition Movies on HD 1647


Tube Young Sex 5310 ryushare uploaded keep2share

Tube Young Sex 5310

Alice March – Smooth as Silk ryushare uploaded keep2share

Alice March – Smooth as Silk

Nude Teens fucking hard 4646 ryushare uploaded keep2share

Nude Teens fucking hard 4646

Movies Young legal porn 4979 ryushare uploaded keep2share

Movies Young legal porn 4979

Porno lesbian young teens movies 4570 ryushare uploaded keep2share

Porno lesbian young teens movies 4570

HD Teens Sex Tube Videos XxX 225747 ryushare uploaded keep2share

HD Teens Sex Tube Videos XxX 225747

Teenage Fuck Clips 4003 ryushare uploaded keep2share

Teenage Fuck Clips 4003

Free Young Porn Videos XXX Teen Porn 5149 ryushare uploaded keep2share

Free Young Porn Videos XXX Teen Porn 5149

8 Teen XXX – Teen Sex 4220 ryushare uploaded keep2share

8 Teen XXX – Teen Sex 4220

Small girl having hot group sex ryushare uploaded keep2share

Small girl having hot group sex

Movies Young legal porn 224165 ryushare uploaded keep2share

Movies Young legal porn 224165

HD Sex World Videos High Definition Free Porn 1554 ryushare uploaded keep2share

HD Sex World Videos High Definition Free Porn 1554

Hot Teen Sex HD videos 223872 ryushare uploaded keep2share

Hot Teen Sex HD videos 223872

Klixen, Cindy Hope and Cipriana – Three teasing tongues 2 ryushare uploaded keep2share

Klixen, Cindy Hope and Cipriana – Three teasing tongues 2

Teen Porn XXX Tube 1179 ryushare uploaded keep2share

Teen Porn XXX Tube 1179

[Youngthroats.com] Ness ryushare uploaded keep2share

[Youngthroats.com] Ness

Xxxxx suan mp4 226337 ryushare uploaded keep2share

Xxxxx suan mp4 226337

Watch Teen Sex Videos HD 224956 ryushare uploaded keep2share

Watch Teen Sex Videos HD 224956

Young Virgin Pussy Teen Fuck Tube 225554 ryushare uploaded keep2share

Young Virgin Pussy Teen Fuck Tube 225554

xxx hd virgin video downloed com 226500 ryushare uploaded keep2share

xxx hd virgin video downloed com 226500

Nude Teens fucking hard 224248 ryushare uploaded keep2share

Nude Teens fucking hard 224248

www hdxxx porn tube 226248 ryushare uploaded keep2share

www hdxxx porn tube 226248

xxxxxxxxxxxxx baf hf 226462 ryushare uploaded keep2share

xxxxxxxxxxxxx baf hf 226462

hd xxx teens virgintiy videos free download 226703 ryushare uploaded keep2share

hd xxx teens virgintiy videos free download 226703

High Definition Movies on HD Teen Porn XXX Tube 3621 ryushare uploaded keep2share

High Definition Movies on HD Teen Porn XXX Tube 3621

teen tease hdv ryushare uploaded keep2share

teen tease hdv

Teens 1080p hd porn 2563 ryushare uploaded keep2share

Teens 1080p hd porn 2563

Clubseventeen 507 Mb 226566 ryushare uploaded keep2share

Clubseventeen 507 Mb 226566

bd hd hq xxx pron video ryushare uploaded keep2share

bd hd hq xxx pron video

Chelsea – First & Forever ryushare uploaded keep2share

Chelsea – First & Forever

Tube Young Sex 1390 ryushare uploaded keep2share

Tube Young Sex 1390

HD Porn Videos 3003 ryushare uploaded keep2share

HD Porn Videos 3003

Wow Porn Movies download) 224985 ryushare uploaded keep2share

Wow Porn Movies download) 224985

8 Teen XXX – Teen Sex 224622 ryushare uploaded keep2share

8 Teen XXX – Teen Sex 224622

Xxxx 2014massage 226629 ryushare uploaded keep2share

Xxxx 2014massage 226629

Report broken links / Post a comment

You must be logged in to post a comment.



General
Complete name : D:HD Teens Download Porn Sex clips movies Tube.xxxNBFMSJncNBFMSJnc.mp4
Format : MPEG-4
Format profile : Base Media
Codec ID : isom
File size : 611 MiB
Duration : 16mn 56s
Overall bit rate mode : Variable
Overall bit rate : 5 042 Kbps
Writing application : Lavf55.16.102

Video
ID : 1
Format : AVC
Format/Info : Advanced Video Codec
Format profile : Main@L3.1
Format settings, CABAC : Yes
Format settings, ReFrames : 4 frames
Codec ID : avc1
Codec ID/Info : Advanced Video Coding
Duration : 16mn 56s
Bit rate : 4 926 Kbps
Width : 1 280 pixels
Height : 720 pixels
Display aspect ratio : 16:9
Frame rate mode : Constant
Frame rate : 23.976 fps
Color space : YUV
Chroma subsampling : 4:2:0
Bit depth : 8 bits
Scan type : Progressive
Bits/(Pixel*Frame) : 0.223
Stream size : 597 MiB (98%)
Writing library : x264 core 123 r2189 35cf912
Encoding settings : cabac=1 / ref=2 / deblock=1:-1:-1 / analyse=0x1:0x111 / me=umh / subme=8 / psy=1 / psy_rd=1.00:0.15 / mixed_ref=1 / me_range=16 / chroma_me=1 / trellis=1 / 8x8dct=0 / cqm=0 / deadzone=21,11 / fast_pskip=1 / chroma_qp_offset=-3 / threads=10 / sliced_threads=0 / nr=0 / decimate=1 / interlaced=0 / bluray_compat=0 / constrained_intra=0 / bframes=3 / b_pyramid=2 / b_adapt=2 / b_bias=0 / direct=3 / weightb=1 / open_gop=0 / weightp=0 / keyint=250 / keyint_min=23 / scenecut=40 / intra_refresh=0 / rc_lookahead=50 / rc=crf / mbtree=1 / crf=17.0 / qcomp=0.60 / qpmin=0 / qpmax=69 / qpstep=4 / ip_ratio=1.40 / aq=1:1.00
Language : English

Audio
ID : 2
Format : AAC
Format/Info : Advanced Audio Codec
Format profile : LC
Codec ID : 40
Duration : 16mn 56s
Duration_LastFrame : -19ms
Bit rate mode : Variable
Bit rate : 110 Kbps
Maximum bit rate : 196 Kbps
Channel(s) : 2 channels
Channel positions : Front: L R
Sampling rate : 44.1 KHz
Compression mode : Lossy
Stream size : 13.4 MiB (2%)
Language : English